<?xml version="1.0" standalone="no"?>
<!DOCTYPE svg PUBLIC "-//W3C//DTD SVG 1.1//EN" "http://www.w3.org/Graphics/SVG/1.1/DTD/svg11.dtd">
<svg xmlns="http://www.w3.org/2000/svg"><metadata>This SVG WebFont was generated by YouWorkForThem.
Copyright Â© 2017 by Samuel Oakes. All rights reserved.</metadata><defs><font horiz-adv-x="569" id="ywftsvg"><font-face ascent="800" bbox="-540 -489 1067 991" cap-height="700" descent="-200" font-family="" font-stretch="normal" font-weight="600" panose-1="0 0 7 0 0 0 0 0 0 0" underline-position="0" underline-thickness="0" unicode-range="U+0020-2265" units-per-em="1000" x-height="500"/><missing-glyph horiz-adv-x="600"/><glyph glyph-name=".notdef" horiz-adv-x="600"/><glyph glyph-name="glyph1" horiz-adv-x="600"/><glyph glyph-name="glyph2" horiz-adv-x="333"/><glyph glyph-name="space" horiz-adv-x="280" unicode=" "/><glyph d="M58 206l-14 544h107l-14 -544h-79zM45 0v119h111v-119h-111z" glyph-name="exclam" horiz-adv-x="241" unicode="!"/><glyph d="M69 589l-31 89v120h111v-120l-31 -89h-49zM249 589l-32 89v120h111v-120l-31 -89h-48z" glyph-name="quotedbl" horiz-adv-x="378" unicode="&quot;"/><glyph d="M178 0l23 163h-129l7 82h133l30 204h-128l8 82h131l24 171h82l-23 -171h163l23 171h82l-23 -171h109l-8 -82h-110l-32 -204h108l-7 -82h-112l-25 -163h-81l23 163h-164l-22 -163h-82zM294 245h163l33 204h-167z" glyph-name="numbersign" horiz-adv-x="750" unicode="#"/><glyph d="M297 -54v52q-96 13 -162.5 69.5t-72.5 150.5h112q12 -62 57 -96t118 -34q66 0 104.5 33.5t38.5 79.5q0 45 -32 71.5t-108 35.5q-271 32 -271 199q0 79 59.5 136t153.5 64v52h97v-58q89 -17 142 -73.5t56 -141.5h-106q-4 59 -47.5 92t-109.5 33q-61 0 -97 -30.5t-36 -70.5 q0 -85 153 -105q141 -18 199.5 -69.5t58.5 -135.5q0 -83 -57.5 -137.5t-152.5 -65.5v-51h-97z" glyph-name="dollar" horiz-adv-x="643" unicode="$"/><glyph d="M53 0l516 750h99l-516 -750h-99zM199 474q-54 0 -92 39.5t-38 95.5t38 95.5t92 39.5t92 -39.5t38 -95.5t-38 -95.5t-92 -39.5zM199 545q23 0 39.5 18.5t16.5 44.5t-16.5 44t-39.5 18t-39 -18t-16 -44t16 -44.5t39 -18.5zM528 -2q-54 0 -92 39.5t-38 95.5t38 95.5t92 39.5 t92 -39.5t38 -95.5t-38 -95.5t-92 -39.5zM528 69q23 0 39.5 18.5t16.5 44.5t-16.5 44t-39.5 18t-39 -18t-16 -44t16 -44.5t39 -18.5z" glyph-name="percent" horiz-adv-x="723" unicode="%"/><glyph d="M285 -13q-95 0 -157.5 55t-62.5 138q0 120 127 198q-79 90 -79 164q0 71 52.5 120t128.5 49q74 0 124 -46.5t50 -117.5q0 -55 -35.5 -104t-94.5 -80l127 -124l37 65l117 1l-78 -139l165 -166h-132l-89 88q-75 -101 -200 -101zM275 429q47 24 74.5 55t27.5 62 q0 33 -23.5 56.5t-59.5 23.5q-34 0 -59 -24t-25 -55q0 -32 15 -56t50 -62zM279 81q80 0 134 77l-158 153q-94 -50 -94 -124q0 -46 35 -76t83 -30z" glyph-name="ampersand" horiz-adv-x="743" unicode="&amp;"/><glyph d="M45 589l-31 89v120h111v-120l-31 -89h-49z" glyph-name="quotesingle" horiz-adv-x="124" unicode="'"/><glyph d="M229 -224q-75 96 -121 231t-46 285t45 285.5t122 212.5h86q-82 -92 -126 -223.5t-44 -274.5q0 -142 47 -275.5t120 -240.5h-83z" glyph-name="parenleft" horiz-adv-x="310" unicode="("/><glyph d="M27 -224q73 107 120 240.5t47 275.5q0 143 -44 274.5t-126 223.5h86q77 -77 122 -212.5t45 -285.5t-46 -285t-121 -231h-83z" glyph-name="parenright" horiz-adv-x="330" unicode=")"/><glyph d="M125 489l-57 34l57 76l-95 -11v66l95 -11l-57 77l57 33l38 -88l39 88l57 -33l-58 -77l96 11v-66l-96 11l58 -76l-57 -34l-39 88z" glyph-name="asterisk" horiz-adv-x="319" unicode="*"/><glyph d="M367 29v219h-199v76h199v218h74v-218h199v-76h-199v-219h-74z" glyph-name="plus" horiz-adv-x="807" unicode="+"/><glyph d="M23 -114v56q53 2 52 58h-57v119h111v-119q0 -57 -28 -85.5t-78 -28.5z" glyph-name="comma" horiz-adv-x="153" unicode=","/><glyph d="M94 287v74h350v-74h-350z" glyph-name="hyphen" horiz-adv-x="537" unicode="-"/><glyph d="M30 0v119h111v-119h-111z" glyph-name="period" horiz-adv-x="175" unicode="."/><glyph d="M72 -200l440 950h94l-439 -950h-95z" glyph-name="slash" horiz-adv-x="576" unicode="/"/><glyph d="M314 -9q-122 0 -196.5 99t-74.5 257q0 161 75 260.5t198 99.5q122 0 197 -99.5t75 -258.5t-75.5 -258.5t-198.5 -99.5zM316 78q79 0 126 74t47 194q0 123 -48 198.5t-128 75.5t-125.5 -72.5t-45.5 -194.5q0 -124 47 -199.5t127 -75.5z" glyph-name="zero" horiz-adv-x="630" unicode="0"/><glyph d="M498 0h-430v84h168v506l-166 -121v94l180 135h79v-614h169v-84z" glyph-name="one" horiz-adv-x="552" unicode="1"/><glyph d="M38 0v97l177 155q113 98 140 127q51 56 51 111q0 57 -36 91.5t-95 34.5q-58 0 -96.5 -36t-45.5 -98h-103q5 101 73 163.5t172 62.5q99 0 164.5 -61t65.5 -153q0 -51 -26 -99.5t-58 -80.5t-93 -86q-15 -13 -23 -20l-129 -116l336 1v-93h-474z" glyph-name="two" horiz-adv-x="541" unicode="2"/><glyph d="M388 364q59 -21 96.5 -65t36.5 -112q-1 -86 -67.5 -142.5t-171.5 -56.5q-110 0 -179 63.5t-72 164.5h102q-1 -60 40 -98t107 -38q62 0 100 31.5t38 79.5q0 52 -42 83.5t-117 31.5h-39v96h35q67 0 107 30.5t40 81.5q0 46 -35 74t-91 28q-62 0 -97 -36t-38 -100h-102 q3 105 67.5 167t173.5 62q99 0 162 -51t63 -131q0 -59 -35.5 -102.5t-81.5 -60.5z" glyph-name="three" horiz-adv-x="551" unicode="3"/><glyph d="M454 0h-98v144h-337v84l323 472h112v-466h97v-92h-97v-142zM356 569l-235 -335h235v335z" glyph-name="four" horiz-adv-x="570" unicode="4"/><glyph d="M297 465q96 0 160 -64.5t64 -167.5q0 -104 -69.5 -172t-172.5 -68q-106 0 -173.5 62t-67.5 162h96q2 -64 41 -98.5t104 -34.5q60 0 100.5 42t42.5 101q1 63 -39.5 108t-100.5 45q-69 0 -118 -49h-103l59 369h355v-92h-280l-28 -185q57 42 130 42z" glyph-name="five" horiz-adv-x="558" unicode="5"/><glyph d="M286 -1q-118 -1 -187.5 91t-69.5 258q0 86 17 151.5t43 103t62 61.5t69 32t69 8q90 -1 152.5 -54t73.5 -135l-93 -1q-13 56 -55.5 82.5t-92.5 21.5q-144 -12 -150 -224l-1 -24q29 44 75 68t100 24q93 0 159 -63.5t66 -166.5q0 -109 -69.5 -171t-167.5 -62zM286 87 q56 0 94 41.5t38 100.5q0 58 -38.5 97.5t-94.5 39.5q-57 0 -96.5 -40.5t-39.5 -99.5q0 -56 39.5 -97.5t97.5 -41.5z" glyph-name="six" horiz-adv-x="552" unicode="6"/><glyph d="M220 0h-103l298 614h-387v86h490v-85z" glyph-name="seven" horiz-adv-x="547" unicode="7"/><glyph d="M274 -10q-110 0 -173 59.5t-63 146.5q0 62 34 110t90 68q-48 16 -78.5 58t-30.5 95q0 79 60.5 129.5t157.5 50.5q98 0 161 -51t63 -129q0 -58 -34 -99t-77 -54q58 -20 92.5 -69t34.5 -111q0 -85 -64 -144.5t-173 -59.5zM273 418q53 0 87.5 29.5t34.5 75.5q0 41 -35 71.5 t-88 30.5t-86.5 -30t-33.5 -71q0 -46 34 -76t87 -30zM273 76q59 0 97.5 34.5t38.5 85.5q0 53 -39.5 88.5t-97.5 35.5t-95 -35t-37 -89q0 -52 37 -86t96 -34z" glyph-name="eight" horiz-adv-x="549" unicode="8"/><glyph d="M266 704q118 0 187.5 -91.5t69.5 -258.5q0 -86 -17 -151.5t-43 -103t-62 -61.5t-69 -31.5t-69 -7.5q-90 0 -152.5 53t-73.5 135l93 1q13 -56 55.5 -82.5t92.5 -21.5q144 14 151 224v24q-28 -44 -74.5 -68t-100.5 -24q-93 0 -159 64t-66 167q0 108 70 170t167 63zM267 615 q-57 0 -95 -41t-38 -100q0 -58 38.5 -98t94.5 -40q57 0 96.5 40.5t39.5 99.5q0 56 -39.5 97.5t-96.5 41.5z" glyph-name="nine" horiz-adv-x="552" unicode="9"/><glyph d="M34 381v119h111v-119h-111zM35 0v119h111v-119h-111z" glyph-name="colon" horiz-adv-x="235" unicode=":"/><glyph d="M84 381v119h111l1 -119h-112zM89 -114v56q53 2 52 58h-57v119h111v-119q0 -57 -28 -85.5t-78 -28.5z" glyph-name="semicolon" horiz-adv-x="295" unicode=";"/><glyph d="M646 26l-552 279v61l552 277v-84l-458 -224l458 -224v-85z" glyph-name="less" horiz-adv-x="739" unicode="&lt;"/><glyph d="M64 320v78h600v-78h-600zM64 133v78h600v-78h-600z" glyph-name="equal" horiz-adv-x="727" unicode="="/><glyph d="M94 26v85l458 224l-458 224v84l552 -277v-61z" glyph-name="greater" horiz-adv-x="739" unicode=">"/><glyph d="M195 179v52q0 56 18.5 98.5t45.5 68t54 47.5t45.5 48.5t18.5 59.5q0 52 -39 83t-89 31q-49 0 -90 -32.5t-42 -96.5h-89q-2 90 63 150.5t156 60.5q95 0 158 -59t63 -137q0 -43 -18.5 -77.5t-45 -58.5t-52.5 -48t-44.5 -56.5t-18.5 -72.5v-61h-94zM188 0v119h111v-119h-111 z" glyph-name="question" horiz-adv-x="536" unicode="?"/><glyph d="M336 -21q-136 0 -230 86.5t-94 217.5q0 137 97.5 235.5t234.5 98.5q134 0 221.5 -83t87.5 -210q0 -85 -47.5 -141t-113.5 -56q-59 0 -85 40q-44 -44 -98 -44q-60 0 -97 40t-37 104q0 76 45 129.5t108 53.5q53 0 76 -37l2 31h87l-16 -142l-6 -54q-4 -43 21 -43 q31 0 55 32.5t24 85.5q0 97 -62 156t-165 59q-105 0 -176 -73.5t-71 -180.5q0 -100 68.5 -163t170.5 -63h262v-79h-262zM316 201q30 0 52.5 30t22.5 71q0 69 -55 69q-31 0 -52 -30t-21 -74q0 -66 53 -66z" glyph-name="at" horiz-adv-x="663" unicode="@"/><glyph d="M137 0l-113 1l268 699h102l268 -700h-112l-68 178h-279zM232 269h222l-111 309z" glyph-name="A" horiz-adv-x="686" unicode="A"/><glyph d="M79 -2v702h292q83 -1 138.5 -50t55.5 -131q0 -47 -25.5 -85t-63.5 -56q53 -20 87 -70.5t33 -113.5q-2 -89 -56.5 -142.5t-145.5 -53.5h-315zM176 408h192q39 0 67 28.5t28 69.5q0 45 -26.5 75t-72.5 30h-188v-203zM178 94h196q49 0 81 30t32 80q0 49 -32 82t-81 33h-196 v-225z" glyph-name="B" horiz-adv-x="635" unicode="B"/><glyph d="M368 -5q-138 0 -231.5 100t-92.5 252q1 157 93.5 258.5t236.5 101.5q123 0 203.5 -70t96.5 -178h-112q-13 63 -64.5 106.5t-126.5 43.5q-97 0 -156.5 -75t-59.5 -188q0 -110 58.5 -181.5t153.5 -71.5q77 0 130 45t65 107h112q-18 -108 -99.5 -179t-206.5 -71z" glyph-name="C" horiz-adv-x="713" unicode="C"/><glyph d="M79 -2v702l252 2q143 2 236 -96t93 -251q0 -155 -90 -254.5t-229 -100.5zM174 94l153 2q101 1 167 71.5t66 183.5q0 114 -65 184.5t-164 68.5l-157 -2v-508z" glyph-name="D" horiz-adv-x="704" unicode="D"/><glyph d="M79 0v700h453v-96h-356v-203h335v-93h-335v-212h356v-96h-453z" glyph-name="E" horiz-adv-x="566" unicode="E"/><glyph d="M79 0v700h445v-93h-348v-210h327v-85h-327v-312h-97z" glyph-name="F" horiz-adv-x="528" unicode="F"/><glyph d="M367 -5q-139 0 -231.5 99.5t-91.5 252.5q1 156 94.5 258t237.5 102q122 0 203.5 -70t97.5 -178h-112q-11 62 -64 106t-129 44q-97 0 -157.5 -75.5t-60.5 -187.5q0 -109 60.5 -182t154.5 -72q72 1 131 43.5t76 127.5h-204v95l306 -1v-357h-87l-7 109q-34 -56 -92 -85 t-125 -29z" glyph-name="G" horiz-adv-x="752" unicode="G"/><glyph d="M79 0v700h105v-297h341v297h105v-700h-105v315h-341v-315h-105z" glyph-name="H" horiz-adv-x="709" unicode="H"/><glyph d="M84 0v700h103v-700h-103z" glyph-name="I" horiz-adv-x="271" unicode="I"/><glyph d="M232 -8q-97 0 -157 59t-61 157v55h95v-52q1 -57 35 -91t88 -34q52 0 84.5 36t32.5 101v477h102v-480q0 -105 -62.5 -166.5t-156.5 -61.5z" glyph-name="J" horiz-adv-x="520" unicode="J"/><glyph d="M79 0v700h95v-348l317 348h122l-292 -320l302 -380h-127l-244 309l-78 -87v-222h-95z" glyph-name="K" horiz-adv-x="632" unicode="K"/><glyph d="M79 0v700h104v-601h313v-99h-417z" glyph-name="L" horiz-adv-x="515" unicode="L"/><glyph d="M79 0v700h125l223 -567l217 567h121v-700h-96v521l-198 -521h-91l-201 523v-523h-100z" glyph-name="M" horiz-adv-x="844" unicode="M"/><glyph d="M507 0l-333 551v-551h-95v700h121l341 -565v565h95v-701z" glyph-name="N" horiz-adv-x="715" unicode="N"/><glyph d="M374 -10q-140 0 -235 102.5t-95 257.5t94.5 256.5t235.5 101.5q140 0 235 -102t95 -258q0 -154 -95 -256t-235 -102zM373 87q100 0 164 73t64 185q0 116 -63.5 192t-163.5 76q-99 0 -162 -75.5t-63 -190.5q0 -112 63 -186t161 -74z" glyph-name="O" horiz-adv-x="748" unicode="O"/><glyph d="M79 -1v701l293 1q91 0 148 -60t57 -152q0 -91 -58.5 -149.5t-152.5 -58.5h-190v-282h-97zM176 367h174q57 0 93.5 32.5t36.5 90.5q0 59 -36.5 92t-93.5 33h-173z" glyph-name="P" horiz-adv-x="601" unicode="P"/><glyph d="M661 -37l-109 81q-79 -52 -180 -52q-139 0 -233.5 101.5t-94.5 256.5q0 154 94.5 255t233.5 101t233.5 -101.5t94.5 -256.5q0 -149 -83 -246l97 -72zM371 88q52 0 91 24l-86 64l54 66l104 -78q63 73 63 181q0 114 -64 190t-161 76t-159.5 -75t-62.5 -189 q0 -112 62.5 -185.5t158.5 -73.5z" glyph-name="Q" horiz-adv-x="758" unicode="Q"/><glyph d="M79 -1v701l295 1q92 0 148.5 -54t56.5 -137q0 -62 -31.5 -108.5t-75.5 -61.5q47 -15 67.5 -54.5t26.5 -109.5q2 -22 3.5 -52t2.5 -42t4 -29t7 -28.5t11 -24.5h-112q-4 11 -7 21t-5 26t-2.5 26t-2 37t-2.5 41q-3 42 -8 65t-18.5 45.5t-41.5 32t-74 9.5h-143v-304h-99z M178 389h174q57 0 93 29t36 84q0 57 -35 85t-94 28h-174v-226z" glyph-name="R" horiz-adv-x="649" unicode="R"/><glyph d="M324 -7q-112 0 -194.5 58t-90.5 165h112q12 -61 57 -95t118 -34q66 0 104.5 33.5t38.5 79.5q0 45 -32 71t-108 35q-271 32 -271 200q0 83 70 141.5t175 58.5q119 0 189 -59t74 -163h-106q-4 59 -47.5 92t-109.5 33q-61 0 -97 -30t-36 -70q0 -86 153 -106 q141 -18 199.5 -69t58.5 -135q0 -93 -71.5 -149.5t-185.5 -56.5z" glyph-name="S" horiz-adv-x="620" unicode="S"/><glyph d="M249 0l1 607h-245l-1 93h586l1 -93l-244 1l-1 -608h-97z" glyph-name="T" horiz-adv-x="595" unicode="T"/><glyph d="M348 -8q-127 0 -203 75t-76 202v431h99v-431q0 -87 49 -135.5t131 -48.5t131 48.5t49 135.5v431h99v-431q0 -127 -76 -202t-203 -75z" glyph-name="U" horiz-adv-x="696" unicode="U"/><glyph d="M274 0l-260 700h102l208 -571l208 571h101l-260 -700h-99z" glyph-name="V" horiz-adv-x="647" unicode="V"/><glyph d="M226 0l-207 700h101l156 -559l151 559h94l158 -560l147 560h101l-200 -700h-97l-156 548l-150 -548h-98z" glyph-name="W" horiz-adv-x="946" unicode="W"/><glyph d="M24 0l259 350l-259 350h123l196 -269l195 269h123l-259 -350l259 -350h-123l-195 269l-196 -269h-123z" glyph-name="X" horiz-adv-x="685" unicode="X"/><glyph d="M271 0v284l-257 416h109l197 -326l205 326h101l-257 -416v-284h-98z" glyph-name="Y" horiz-adv-x="640" unicode="Y"/><glyph d="M44 0v98l443 504h-437v98h559v-98l-437 -504h431v-98h-559z" glyph-name="Z" horiz-adv-x="643" unicode="Z"/><glyph d="M83 -317v1134h187v-74h-107v-986h107v-74h-187z" glyph-name="bracketleft" horiz-adv-x="270" unicode="["/><glyph d="M513 -210l-456 960h94l457 -960h-95z" glyph-name="backslash" horiz-adv-x="576" unicode="\"/><glyph d="M83 -317v74h107v986h-107v74h187v-1134h-187z" glyph-name="bracketright" horiz-adv-x="270" unicode="]"/><glyph d="M94 -78v78h500v-78h-500z" glyph-name="underscore" horiz-adv-x="687" unicode="_"/><glyph d="M117 580l-129 131h123l102 -131h-96z" glyph-name="grave" horiz-adv-x="264" unicode="`"/><glyph d="M203 -10q-70 0 -119.5 41t-49.5 110q0 71 45 107q47 37 137 45q91 9 117 24q24 15 24 41q0 29 -25.5 48t-65.5 19q-51 0 -79.5 -25.5t-33.5 -61.5l-101 -1q8 77 64.5 126t145.5 49q92 0 143.5 -48t51.5 -124v-340h-100v63q-57 -73 -154 -73zM218 74q51 -2 94.5 29.5 t44.5 90.5l1 53q-29 -20 -123 -28q-98 -8 -98 -72q0 -31 22.5 -51t58.5 -22z" glyph-name="a" horiz-adv-x="516" unicode="a"/><glyph d="M323 -11q-58 0 -102.5 27t-59.5 57v-73h-92v700h92v-276q54 81 165 81q91 0 158 -69.5t67 -188.5t-69 -188.5t-159 -69.5zM307 79q63 0 102.5 48.5t39.5 125.5q0 72 -39.5 118t-102.5 46q-65 0 -105.5 -48.5t-40.5 -124.5q0 -72 40.5 -118.5t105.5 -46.5z" glyph-name="b" horiz-adv-x="585" unicode="b"/><glyph d="M270 -7q-104 0 -170 71.5t-66 185.5q0 115 67 187.5t173 72.5q85 0 145.5 -49.5t70.5 -127.5h-100q-10 40 -41.5 67t-77.5 27q-58 0 -96.5 -47t-38.5 -125q0 -80 38.5 -128t97.5 -48q47 0 78.5 27t39.5 67h100q-11 -79 -72.5 -129.5t-147.5 -50.5z" glyph-name="c" horiz-adv-x="525" unicode="c"/><glyph d="M262 -11q-90 0 -159 69.5t-69 188.5t66.5 188.5t158.5 69.5q111 0 165 -81v276h92v-700h-92v73q-16 -31 -60 -57.5t-102 -26.5zM278 79q65 0 105.5 46.5t40.5 118.5q0 76 -40.5 124.5t-105.5 48.5q-63 0 -102.5 -46t-39.5 -118q0 -77 39.5 -125.5t102.5 -48.5z" glyph-name="d" horiz-adv-x="585" unicode="d"/><glyph d="M272 -11q-108 0 -173 69t-65 188q0 116 65 188t171 72q110 0 170.5 -81t53.5 -206h-360v-1q0 -67 37.5 -106t101.5 -39q37 0 72.5 20.5t49.5 65.5h91q-11 -76 -69 -123t-145 -47zM137 304h255q-4 53 -37 85.5t-88 32.5t-90.5 -33t-39.5 -85z" glyph-name="e" horiz-adv-x="529" unicode="e"/><glyph d="M80 0v418h-76v82h76v68q0 59 37 95.5t96 36.5h87l1 -86h-66q-34 0 -47.5 -15t-13.5 -52v-47h125v-82h-125v-418h-94z" glyph-name="f" horiz-adv-x="305" unicode="f"/><glyph d="M274 -208q-98 0 -158.5 50.5t-64.5 124.5l96 -1q6 -29 23 -49t39.5 -28t38.5 -11t29 -3q70 0 112.5 42t42.5 128v50q-23 -45 -72 -72.5t-105 -27.5q-102 0 -161.5 71.5t-59.5 186.5q0 112 63 185t161 73q54 0 102 -27t72 -71v87h93v-455q0 -125 -68.5 -189t-182.5 -64z M279 83q64 0 105 48.5t41 124.5q0 72 -41 118.5t-105 46.5q-63 0 -102.5 -48.5t-39.5 -125.5q0 -72 39.5 -118t102.5 -46z" glyph-name="g" horiz-adv-x="589" unicode="g"/><glyph d="M69 0v700h96v-265q19 30 58.5 54t93.5 24q32 0 63 -10.5t60 -32.5t47 -64t18 -99v-307h-103v297q0 63 -29 96.5t-77 33.5q-56 0 -93.5 -46t-37.5 -123v-258h-96z" glyph-name="h" unicode="h"/><glyph d="M64 583v117h108v-117h-108zM68 0v500h101v-500h-101z" glyph-name="i" horiz-adv-x="236" unicode="i"/><glyph d="M69 583v117h108v-117h-108zM-16 -177v92h22q32 0 51 19t19 58v508h96v-524q0 -71 -42 -112t-109 -41h-37z" glyph-name="j" horiz-adv-x="236" unicode="j"/><glyph d="M69 0v700h95v-406l193 206h119l-187 -199l208 -300l-109 -1l-161 233l-63 -67v-166h-95z" glyph-name="k" horiz-adv-x="511" unicode="k"/><glyph d="M69 0v700h101v-700h-101z" glyph-name="l" horiz-adv-x="239" unicode="l"/><glyph d="M69 0v500h96v-65q50 78 144 78q107 0 161 -97q57 97 169 97q32 0 63 -10.5t60.5 -32.5t48 -64t18.5 -99v-307h-103v297q0 64 -29 97t-77 33q-54 0 -88.5 -46t-34.5 -123v-258h-103v297q0 64 -29 97t-77 33q-54 0 -88.5 -46t-34.5 -123v-258h-96z" glyph-name="m" horiz-adv-x="893" unicode="m"/><glyph d="M69 0v500h96v-65q19 30 58.5 54t93.5 24q32 0 63 -10.5t60 -32.5t47 -64t18 -99v-307h-103v297q0 64 -29 97t-77 33q-55 0 -93 -46.5t-38 -122.5v-258h-96z" glyph-name="n" unicode="n"/><glyph d="M274 -5q-103 0 -171.5 72t-68.5 183q0 112 68.5 184.5t171.5 72.5t171 -72t68 -185q0 -111 -68.5 -183t-170.5 -72zM273 85q67 0 106 46t39 118q0 74 -38.5 121t-105.5 47q-66 0 -104.5 -47t-38.5 -120q0 -72 38.5 -118.5t103.5 -46.5z" glyph-name="o" horiz-adv-x="547" unicode="o"/><glyph d="M69 -200v700h92v-73q15 30 59.5 57t102.5 27q90 0 159 -69.5t69 -188.5t-67 -188.5t-158 -69.5q-111 0 -165 81v-276h-92zM307 83q63 0 102.5 46t39.5 118q0 77 -39.5 125.5t-102.5 48.5q-65 0 -105.5 -46.5t-40.5 -118.5q0 -76 40.5 -124.5t105.5 -48.5z" glyph-name="p" horiz-adv-x="585" unicode="p"/><glyph d="M424 -200v276q-54 -81 -165 -81q-92 0 -158.5 69.5t-66.5 188.5t69 188.5t159 69.5q58 0 102 -26.5t60 -57.5v73h92v-700h-92zM278 83q65 0 105.5 48.5t40.5 124.5q0 72 -40.5 118.5t-105.5 46.5q-63 0 -102.5 -48.5t-39.5 -125.5q0 -72 39.5 -118t102.5 -46z" glyph-name="q" horiz-adv-x="585" unicode="q"/><glyph d="M69 0v500h93v-63q38 73 146 71h18v-99l-13 -1q-151 4 -151 -146v-262h-93z" glyph-name="r" horiz-adv-x="332" unicode="r"/><glyph d="M242 -11q-88 0 -148.5 44.5t-64.5 126.5h93q7 -42 39.5 -65.5t78.5 -23.5q44 0 69.5 22t25.5 55q0 27 -22 44.5t-77 25.5q-59 9 -99 25t-59 37.5t-26.5 41.5t-7.5 44q0 59 51 101t132 42q79 0 135 -42t62 -128h-90q-11 86 -105 86q-36 0 -62 -16t-26 -44q0 -53 95 -66 q109 -14 154 -51.5t45 -99.5q0 -71 -57.5 -115t-135.5 -44z" glyph-name="s" horiz-adv-x="464" unicode="s"/><glyph d="M205 0q-59 0 -96.5 36.5t-37.5 95.5v286h-77v82h77v156h95v-156h125v-82h-125v-265q0 -38 13.5 -52.5t47.5 -14.5h65v-86h-87z" glyph-name="t" horiz-adv-x="306" unicode="t"/><glyph d="M252 -13q-32 0 -63 10.5t-60 32.5t-47 64t-18 99v307h103v-297q0 -63 29 -96.5t77 -33.5q56 0 93.5 46t37.5 123v258h96v-500h-96v65q-19 -30 -58.5 -54t-93.5 -24z" glyph-name="u" unicode="u"/><glyph d="M206 0l-202 500h103l141 -371l139 371h105l-203 -500h-83z" glyph-name="v" horiz-adv-x="496" unicode="v"/><glyph d="M171 0l-162 500h104l108 -371l107 371h80l108 -371l106 371h106l-163 -500h-99l-97 333l-98 -333h-100z" glyph-name="w" horiz-adv-x="737" unicode="w"/><glyph d="M14 0l184 250l-184 250h114l126 -174l124 174h113l-183 -250l183 -250h-113l-125 174l-126 -174h-113z" glyph-name="x" horiz-adv-x="505" unicode="x"/><glyph d="M38 -200l-1 88h45q63 0 91 71l26 72l-195 469h105l140 -353l132 353h105l-220 -565q-54 -135 -175 -135h-53z" glyph-name="y" horiz-adv-x="490" unicode="y"/><glyph d="M34 0v89l287 323h-287v89l404 -1v-88l-286 -323h286v-89h-404z" glyph-name="z" horiz-adv-x="482" unicode="z"/><glyph d="M242 -310q-43 0 -77.5 38t-34.5 90v237q0 74 -13 106t-62 56v65q49 25 62 57.5t13 103.5v237q0 56 33.5 91.5t77.5 35.5h25v-73q-34 0 -47 -15.5t-13 -48.5v-242q0 -64 -14 -106t-59 -73q45 -30 59 -72.5t14 -106.5v-245q0 -32 14 -46.5t46 -14.5v-74h-24z" glyph-name="braceleft" horiz-adv-x="319" unicode="{"/><glyph d="M105 -150v900h77v-900h-77z" glyph-name="bar" horiz-adv-x="287" unicode="|"/><glyph d="M55 -310v73q35 0 47.5 15t12.5 49v242q0 64 14 106t59 73q-45 30 -59 72.5t-14 106.5v245q0 32 -14 46.5t-46 14.5v74h24q43 0 77.5 -37.5t34.5 -90.5v-237q0 -73 13.5 -105t61.5 -57v-65q-49 -24 -62 -56.5t-13 -104.5v-237q0 -55 -34 -91t-77 -36h-25z" glyph-name="braceright" horiz-adv-x="319" unicode="}"/><glyph d="M86 428v120h112v-120h-112zM90 -202l14 544h79l14 -544h-107z" glyph-name="exclamdown" horiz-adv-x="285" unicode="¡"/><glyph d="M233 0v76q-89 13 -143.5 82t-54.5 172t54.5 173t144.5 84v78h81v-78q71 -11 119.5 -58.5t56.5 -115.5h-100q-10 40 -41.5 67t-77.5 27q-58 0 -96.5 -47t-38.5 -125q0 -80 38.5 -128t97.5 -48q47 0 78.5 27.5t39.5 66.5h100q-9 -68 -57.5 -116t-119.5 -60v-77h-81z" glyph-name="cent" horiz-adv-x="536" unicode="¢"/><glyph d="M556 140q-4 -69 -51 -108.5t-107 -39.5q-46 0 -110 33.5t-94 33.5q-25 0 -45 -15t-21 -45h-84q-5 104 89 138q15 36 16 69q2 51 -15 100h-81v80l65 -1q-26 98 -25 144q2 85 64 142t154 57q90 0 153.5 -52t70.5 -139h-92q-6 41 -29.5 67t-50 34.5t-56.5 7.5 q-53 0 -91 -33.5t-38 -86.5q-1 -30 25 -140h216v-80h-194q13 -69 12 -102t-11 -68q25 -5 82 -32t80 -27q34 0 53.5 18t21.5 45h93z" glyph-name="sterling" horiz-adv-x="600" unicode="£"/><glyph d="M302 0v120h-205v80h205v62h-205v80h178l-231 368h110l197 -323l206 323h101l-231 -368h179v-80h-206v-62h206v-80h-206v-120h-98z" glyph-name="yen" horiz-adv-x="663" unicode="¥"/><glyph d="M81 390v360h85v-360h-85zM81 -150v360h85v-360h-85z" glyph-name="brokenbar" horiz-adv-x="287" unicode="¦"/><glyph d="M67 593v119h111v-119h-111zM253 593v119h112v-119h-112z" glyph-name="dieresis" horiz-adv-x="53" unicode="¨"/><glyph d="M439 -16q-161 0 -276 114.5t-115 275.5t115 276t276 115t275.5 -115t114.5 -276t-114.5 -275.5t-275.5 -114.5zM439 36q142 0 240.5 98.5t98.5 239.5t-98.5 240t-240.5 99q-141 0 -240 -99t-99 -240t99 -239.5t240 -98.5zM438 139q-92 0 -153.5 66.5t-60.5 165.5 q1 103 62 170t156 67q81 0 134 -45.5t65 -116.5h-75q-10 40 -44 68.5t-82 28.5q-63 0 -102.5 -48.5t-39.5 -123.5q0 -73 39 -119.5t100 -46.5q50 0 85 29t44 69h75q-13 -71 -67 -117.5t-136 -46.5z" glyph-name="copyright" horiz-adv-x="876" unicode="©"/><glyph d="M235 95l-152 184l152 184h90l-152 -184l152 -184h-90zM439 95l-152 184l152 184h91l-152 -184l152 -184h-91z" glyph-name="guillemotleft" horiz-adv-x="612" unicode="«"/><glyph d="M94 220v70h350v-70h-350z" glyph-name="uni00AD" horiz-adv-x="590" unicode="­"/><glyph d="M438 -16q-161 0 -276 115t-115 276t115 276t276 115t276 -115t115 -276t-115 -276t-276 -115zM438 37q142 0 240.5 98.5t98.5 239.5t-98.5 239.5t-240.5 98.5q-141 0 -239.5 -98.5t-98.5 -239.5t98.5 -239.5t239.5 -98.5zM542 160q-7 19 -12 95q-3 51 -18.5 72t-68.5 21 h-86v-188h-65v438l185 1q58 0 94 -34.5t36 -86.5q0 -39 -19 -67.5t-46 -38.5q51 -17 56 -101q1 -11 2 -28t1.5 -23.5t2 -17t3 -16t4 -12.5t5.5 -14h-74zM357 405h106q35 0 57 17t22 51q0 68 -79 68h-106v-136z" glyph-name="registered" horiz-adv-x="876" unicode="®"/><glyph d="M34 591v78h310v-78h-310z" glyph-name="macron" horiz-adv-x="67" unicode="¯"/><glyph d="M248 492q-55 0 -94.5 39.5t-39.5 94.5q0 56 39 95t95 39q55 0 94.5 -39.5t39.5 -94.5t-39.5 -94.5t-94.5 -39.5zM248 564q28 0 45 17t17 45t-17 45t-45 17t-45 -17t-17 -45t17 -45t45 -17z" glyph-name="degree" horiz-adv-x="495" unicode="°"/><glyph d="M83 580h-97l102 131h124z" glyph-name="acute" horiz-adv-x="264" unicode="´"/><glyph d="M87 245v120h112v-120h-112z" glyph-name="periodcentered" horiz-adv-x="270" unicode="·"/><glyph d="M134 -260q-36 0 -70 21t-46 50l57 21q8 -13 25.5 -23t33.5 -10q20 0 33.5 14t13.5 34q0 35 -33 42q-25 7 -54 -8l-48 28l48 91h61l-33 -62q19 4 37 1q36 -4 59.5 -29.5t23.5 -62.5q0 -45 -31.5 -76t-76.5 -31z" glyph-name="cedilla" horiz-adv-x="53" unicode="¸"/><glyph d="M82 95l152 184l-152 184h90l152 -184l-152 -184h-90zM286 95l152 184l-152 184h91l152 -184l-152 -184h-91z" glyph-name="guillemotright" horiz-adv-x="612" unicode="»"/><glyph d="M224 430v119h111v-119h-111zM275 -200q-95 0 -158 59t-63 137q0 43 18.5 77.5t45 58.5t52.5 48t44.5 56.5t18.5 72.5v61h94v-52q0 -56 -18.5 -98.5t-45.5 -68t-54 -47.5t-45.5 -48.5t-18.5 -59.5q0 -52 39 -83t88 -31t90 32.5t43 96.5h89q2 -90 -63.5 -150.5 t-155.5 -60.5z" glyph-name="questiondown" horiz-adv-x="536" unicode="¿"/><glyph d="M303 744l-129 131h123l102 -131h-96zM137 0l-113 1l268 699h102l268 -700h-112l-68 178h-279zM232 269h222l-111 309z" glyph-name="Agrave" horiz-adv-x="686" unicode="À"/><glyph d="M380 743h-97l102 131h123zM137 0l-113 1l268 699h102l268 -700h-112l-68 178h-279zM232 269h222l-111 309z" glyph-name="Aacute" horiz-adv-x="686" unicode="Á"/><glyph d="M267 899h135l106 -157h-103l-70 100l-70 -100h-102zM137 0l-113 1l268 699h102l268 -700h-112l-68 178h-279zM232 269h222l-111 309z" glyph-name="Acircumflex" horiz-adv-x="686" unicode="Â"/><glyph d="M410 742q-59 0 -99 57q-13 22 -32 22q-27 0 -30 -35q0 -16 6 -35h-77q-3 15 -3 29q-2 51 26.5 83.5t74.5 32.5q61 0 99 -57q13 -22 32 -22q17 0 25 14.5t4 39.5q0 2 -1.5 7.5t-2.5 8.5h76q2 -8 2 -13q8 -57 -20 -94.5t-80 -37.5zM137 0l-113 1l268 699h102l268 -700h-112 l-68 178h-279zM232 269h222l-111 309z" glyph-name="Atilde" horiz-adv-x="686" unicode="Ã"/><glyph d="M192 756v119h111v-119h-111zM378 756v119h112v-119h-112zM137 0l-113 1l268 699h102l268 -700h-112l-68 178h-279zM232 269h222l-111 309z" glyph-name="Adieresis" horiz-adv-x="686" unicode="Ä"/><glyph d="M343 741q-39 0 -66 27.5t-27 65.5t27 65.5t66 27.5q37 0 64 -27.5t28 -65.5q0 -38 -27.5 -65.5t-64.5 -27.5zM343 794q18 0 29 10.5t11 29.5t-11 30.5t-29 11.5q-19 0 -30 -11.5t-11 -30.5t11 -29.5t30 -10.5zM137 0l-113 1l268 699h102l268 -700h-112l-68 178h-279z M232 269h222l-111 309z" glyph-name="Aring" horiz-adv-x="686" unicode="Å"/><glyph d="M874 604h-356v-203h335v-93h-335v-212h356v-96h-453v179h-224l-68 -179l-105 1l261 699h589v-96zM231 277h190v324h-74z" glyph-name="AE" horiz-adv-x="908" unicode="Æ"/><glyph d="M367 93q77 0 130 45t65 107h112q-18 -106 -97 -176.5t-201 -73.5l-14 -26q18 4 38 1q36 -5 59 -30t23 -62q0 -45 -31 -76t-76 -31q-37 0 -70.5 20.5t-46.5 50.5l57 21q9 -14 26.5 -23.5t33.5 -9.5q19 0 32.5 14t13.5 34q0 35 -33 42q-22 6 -54 -8l-48 28l32 59 q-120 18 -197.5 114t-76.5 234q1 157 93.5 258.5t236.5 101.5q123 0 203.5 -70t96.5 -178h-112q-13 63 -64.5 106.5t-126.5 43.5q-97 0 -156.5 -75t-59.5 -188q0 -110 58.5 -181.5t153.5 -71.5z" glyph-name="Ccedilla" horiz-adv-x="713" unicode="Ç"/><glyph d="M268 744l-129 131h123l102 -131h-96zM79 0v700h453v-96h-356v-203h335v-93h-335v-212h356v-96h-453z" glyph-name="Egrave" horiz-adv-x="566" unicode="È"/><glyph d="M346 743h-97l102 131h123zM79 0v700h453v-96h-356v-203h335v-93h-335v-212h356v-96h-453z" glyph-name="Eacute" horiz-adv-x="566" unicode="É"/><glyph d="M233 899h135l106 -157h-103l-70 100l-70 -100h-102zM79 0v700h453v-96h-356v-203h335v-93h-335v-212h356v-96h-453z" glyph-name="Ecircumflex" horiz-adv-x="566" unicode="Ê"/><glyph d="M158 756v119h111v-119h-111zM344 756v119h112v-119h-112zM79 0v700h453v-96h-356v-203h335v-93h-335v-212h356v-96h-453z" glyph-name="Edieresis" horiz-adv-x="566" unicode="Ë"/><glyph d="M96 744l-129 131h123l102 -131h-96zM84 0v700h103v-700h-103z" glyph-name="Igrave" horiz-adv-x="271" unicode="Ì"/><glyph d="M173 743h-97l102 131h123zM84 0v700h103v-700h-103z" glyph-name="Iacute" horiz-adv-x="271" unicode="Í"/><glyph d="M60 898h135l106 -156h-103l-70 99l-70 -99h-102zM84 0v700h103v-700h-103z" glyph-name="Icircumflex" horiz-adv-x="273" unicode="Î"/><glyph d="M-15 756v119h111v-119h-111zM171 756v119h112v-119h-112zM84 0v700h103v-700h-103z" glyph-name="Idieresis" horiz-adv-x="274" unicode="Ï"/><glyph d="M397 702q143 2 236 -96t93 -251q0 -155 -90 -254.5t-229 -100.5l-262 -2v313h-66v91h66v298zM393 96q101 1 167 71.5t66 183.5q0 114 -65 184.5t-164 68.5l-157 -2v-200h71v-91h-71v-217z" glyph-name="Eth" horiz-adv-x="770" unicode="Ð"/><glyph d="M424 742q-59 0 -99 57q-13 22 -32 22q-27 0 -30 -35q0 -16 6 -35h-77q-3 15 -3 29q-2 51 26.5 83.5t74.5 32.5q61 0 99 -57q13 -22 32 -22q17 0 25 14.5t4 39.5q0 2 -1.5 7.5t-2.5 8.5h76q2 -8 2 -13q8 -57 -20 -94.5t-80 -37.5zM507 0l-333 551v-551h-95v700h121 l341 -565v565h95v-701z" glyph-name="Ntilde" horiz-adv-x="715" unicode="Ñ"/><glyph d="M334 744l-129 131h123l102 -131h-96zM374 -10q-140 0 -235 102.5t-95 257.5t94.5 256.5t235.5 101.5q140 0 235 -102t95 -258q0 -154 -95 -256t-235 -102zM373 87q100 0 164 73t64 185q0 116 -63.5 192t-163.5 76q-99 0 -162 -75.5t-63 -190.5q0 -112 63 -186t161 -74z " glyph-name="Ograve" horiz-adv-x="748" unicode="Ò"/><glyph d="M411 743h-97l102 131h123zM374 -10q-140 0 -235 102.5t-95 257.5t94.5 256.5t235.5 101.5q140 0 235 -102t95 -258q0 -154 -95 -256t-235 -102zM373 87q100 0 164 73t64 185q0 116 -63.5 192t-163.5 76q-99 0 -162 -75.5t-63 -190.5q0 -112 63 -186t161 -74z" glyph-name="Oacute" horiz-adv-x="748" unicode="Ó"/><glyph d="M298 899h135l106 -157h-103l-70 100l-70 -100h-102zM374 -10q-140 0 -235 102.5t-95 257.5t94.5 256.5t235.5 101.5q140 0 235 -102t95 -258q0 -154 -95 -256t-235 -102zM373 87q100 0 164 73t64 185q0 116 -63.5 192t-163.5 76q-99 0 -162 -75.5t-63 -190.5 q0 -112 63 -186t161 -74z" glyph-name="Ocircumflex" horiz-adv-x="748" unicode="Ô"/><glyph d="M440 742q-59 0 -99 57q-13 22 -32 22q-27 0 -30 -35q0 -16 6 -35h-77q-3 15 -3 29q-2 51 26.5 83.5t74.5 32.5q61 0 99 -57q13 -22 32 -22q17 0 25 14.5t4 39.5q0 2 -1.5 7.5t-2.5 8.5h76q2 -8 2 -13q8 -57 -20 -94.5t-80 -37.5zM374 -10q-140 0 -235 102.5t-95 257.5 t94.5 256.5t235.5 101.5q140 0 235 -102t95 -258q0 -154 -95 -256t-235 -102zM373 87q100 0 164 73t64 185q0 116 -63.5 192t-163.5 76q-99 0 -162 -75.5t-63 -190.5q0 -112 63 -186t161 -74z" glyph-name="Otilde" horiz-adv-x="748" unicode="Õ"/><glyph d="M223 756v119h111v-119h-111zM409 756v119h112v-119h-112zM374 -10q-140 0 -235 102.5t-95 257.5t94.5 256.5t235.5 101.5q140 0 235 -102t95 -258q0 -154 -95 -256t-235 -102zM373 87q100 0 164 73t64 185q0 116 -63.5 192t-163.5 76q-99 0 -162 -75.5t-63 -190.5 q0 -112 63 -186t161 -74z" glyph-name="Odieresis" horiz-adv-x="748" unicode="Ö"/><glyph d="M195 56l-69 70l184 184l-184 185l69 69l185 -185l185 185l69 -69l-185 -185l185 -184l-69 -70l-185 185z" glyph-name="multiply" horiz-adv-x="731" unicode="×"/><glyph d="M708 700l-89 -105q85 -101 85 -247q0 -154 -95 -256t-235 -102q-115 0 -204 73l-54 -63h-106l104 123q-70 97 -70 227q0 155 94.5 256.5t235.5 101.5q103 0 185 -58l43 50h106zM149 347q0 -80 34 -143l313 371q-54 38 -122 38q-99 0 -162 -75.5t-63 -190.5zM601 345 q0 99 -48 171l-319 -377q58 -52 139 -52q100 0 164 73t64 185z" glyph-name="Oslash" horiz-adv-x="766" unicode="Ø"/><glyph d="M313 744l-129 131h123l102 -131h-96zM348 -8q-127 0 -203 75t-76 202v431h99v-431q0 -87 49 -135.5t131 -48.5t131 48.5t49 135.5v431h99v-431q0 -127 -76 -202t-203 -75z" glyph-name="Ugrave" horiz-adv-x="696" unicode="Ù"/><glyph d="M390 743h-97l102 131h123zM348 -8q-127 0 -203 75t-76 202v431h99v-431q0 -87 49 -135.5t131 -48.5t131 48.5t49 135.5v431h99v-431q0 -127 -76 -202t-203 -75z" glyph-name="Uacute" horiz-adv-x="696" unicode="Ú"/><glyph d="M277 899h135l106 -157h-103l-70 100l-70 -100h-102zM348 -8q-127 0 -203 75t-76 202v431h99v-431q0 -87 49 -135.5t131 -48.5t131 48.5t49 135.5v431h99v-431q0 -127 -76 -202t-203 -75z" glyph-name="Ucircumflex" horiz-adv-x="696" unicode="Û"/><glyph d="M202 756v119h111v-119h-111zM388 756v119h112v-119h-112zM348 -8q-127 0 -203 75t-76 202v431h99v-431q0 -87 49 -135.5t131 -48.5t131 48.5t49 135.5v431h99v-431q0 -127 -76 -202t-203 -75z" glyph-name="Udieresis" horiz-adv-x="696" unicode="Ü"/><glyph d="M357 743h-97l102 131h123zM271 0v284l-257 416h109l197 -326l205 326h101l-257 -416v-284h-98z" glyph-name="Yacute" horiz-adv-x="640" unicode="Ý"/><glyph d="M79 0v700h97v-134l196 1q91 0 148 -60t57 -152q0 -91 -58.5 -149.5t-152.5 -58.5h-190v-147h-97zM176 233h174q57 0 93.5 32.5t36.5 90.5t-36.5 91.5t-93.5 33.5h-173z" glyph-name="Thorn" horiz-adv-x="601" unicode="Þ"/><glyph d="M263 -2l-1 96h83q60 0 98 28t38 74q0 58 -46 87.5t-129 29.5h-33v88h30q74 0 119.5 36.5t45.5 91.5q0 47 -39 79t-98 32q-69 0 -110 -42.5t-41 -111.5v-488h-101v488q0 111 70 176.5t188 65.5q105 0 171.5 -54t66.5 -142q0 -109 -99 -166q54 -23 84 -68t30 -103 q0 -89 -67.5 -143t-177.5 -54h-82z" glyph-name="germandbls" horiz-adv-x="629" unicode="ß"/><glyph d="M220 554l-129 131h123l102 -131h-96zM203 -10q-70 0 -119.5 41t-49.5 110q0 71 45 107q47 37 137 45q91 9 117 24q24 15 24 41q0 29 -25.5 48t-65.5 19q-51 0 -79.5 -25.5t-33.5 -61.5l-101 -1q8 77 64.5 126t145.5 49q92 0 143.5 -48t51.5 -124v-340h-100v63 q-57 -73 -154 -73zM218 74q51 -2 94.5 29.5t44.5 90.5l1 53q-29 -20 -123 -28q-98 -8 -98 -72q0 -31 22.5 -51t58.5 -22z" glyph-name="agrave" horiz-adv-x="516" unicode="à"/><glyph d="M298 553h-97l102 131h123zM203 -10q-70 0 -119.5 41t-49.5 110q0 71 45 107q47 37 137 45q91 9 117 24q24 15 24 41q0 29 -25.5 48t-65.5 19q-51 0 -79.5 -25.5t-33.5 -61.5l-101 -1q8 77 64.5 126t145.5 49q92 0 143.5 -48t51.5 -124v-340h-100v63q-57 -73 -154 -73z M218 74q51 -2 94.5 29.5t44.5 90.5l1 53q-29 -20 -123 -28q-98 -8 -98 -72q0 -31 22.5 -51t58.5 -22z" glyph-name="aacute" horiz-adv-x="516" unicode="á"/><glyph d="M185 708h135l106 -157h-103l-70 100l-70 -100h-102zM203 -10q-70 0 -119.5 41t-49.5 110q0 71 45 107q47 37 137 45q91 9 117 24q24 15 24 41q0 29 -25.5 48t-65.5 19q-51 0 -79.5 -25.5t-33.5 -61.5l-101 -1q8 77 64.5 126t145.5 49q92 0 143.5 -48t51.5 -124v-340h-100 v63q-57 -73 -154 -73zM218 74q51 -2 94.5 29.5t44.5 90.5l1 53q-29 -20 -123 -28q-98 -8 -98 -72q0 -31 22.5 -51t58.5 -22z" glyph-name="acircumflex" horiz-adv-x="516" unicode="â"/><glyph d="M327 552q-59 0 -99 57q-13 22 -32 22q-27 0 -30 -35q0 -16 6 -35h-77q-3 15 -3 29q-2 51 26.5 83.5t74.5 32.5q61 0 99 -57q13 -22 32 -22q17 0 25 14.5t4 39.5q0 2 -1.5 7.5t-2.5 8.5h76q2 -8 2 -13q8 -57 -20 -94.5t-80 -37.5zM203 -10q-70 0 -119.5 41t-49.5 110 q0 71 45 107q47 37 137 45q91 9 117 24q24 15 24 41q0 29 -25.5 48t-65.5 19q-51 0 -79.5 -25.5t-33.5 -61.5l-101 -1q8 77 64.5 126t145.5 49q92 0 143.5 -48t51.5 -124v-340h-100v63q-57 -73 -154 -73zM218 74q51 -2 94.5 29.5t44.5 90.5l1 53q-29 -20 -123 -28 q-98 -8 -98 -72q0 -31 22.5 -51t58.5 -22z" glyph-name="atilde" horiz-adv-x="516" unicode="ã"/><glyph d="M110 565v119h111v-119h-111zM296 565v119h112v-119h-112zM203 -10q-70 0 -119.5 41t-49.5 110q0 71 45 107q47 37 137 45q91 9 117 24q24 15 24 41q0 29 -25.5 48t-65.5 19q-51 0 -79.5 -25.5t-33.5 -61.5l-101 -1q8 77 64.5 126t145.5 49q92 0 143.5 -48t51.5 -124v-340 h-100v63q-57 -73 -154 -73zM218 74q51 -2 94.5 29.5t44.5 90.5l1 53q-29 -20 -123 -28q-98 -8 -98 -72q0 -31 22.5 -51t58.5 -22z" glyph-name="adieresis" horiz-adv-x="516" unicode="ä"/><glyph d="M261 550q-39 0 -66 27.5t-27 65.5t27 65.5t66 27.5q37 0 64 -27.5t28 -65.5q0 -38 -27.5 -65.5t-64.5 -27.5zM261 603q18 0 29 10.5t11 29.5t-11 30.5t-29 11.5q-19 0 -30 -11.5t-11 -30.5t11 -29.5t30 -10.5zM203 -10q-70 0 -119.5 41t-49.5 110q0 71 45 107 q47 37 137 45q91 9 117 24q24 15 24 41q0 29 -25.5 48t-65.5 19q-51 0 -79.5 -25.5t-33.5 -61.5l-101 -1q8 77 64.5 126t145.5 49q92 0 143.5 -48t51.5 -124v-340h-100v63q-57 -73 -154 -73zM218 74q51 -2 94.5 29.5t44.5 90.5l1 53q-29 -20 -123 -28q-98 -8 -98 -72 q0 -31 22.5 -51t58.5 -22z" glyph-name="aring" horiz-adv-x="516" unicode="å"/><glyph d="M823 219h-360v-1q0 -67 37.5 -106t100.5 -39q38 0 73.5 20.5t49.5 65.5h91q-11 -76 -69 -123t-145 -47q-131 0 -194 96q-17 -37 -71 -66t-121 -29q-72 0 -126.5 41.5t-54.5 109.5q0 71 45 107q47 37 137 45q91 9 117 24q24 15 24 41q0 29 -25.5 48t-65.5 19 q-51 0 -79.5 -25.5t-33.5 -61.5l-101 -1q8 77 64.5 126t145.5 49q117 0 169 -75q63 69 168 69q110 0 170.5 -81t53.5 -206zM596 422q-55 0 -90.5 -33t-39.5 -85h255q-4 53 -37 85.5t-88 32.5zM357 194l1 53q-29 -20 -123 -28q-98 -6 -98 -72q0 -31 22.5 -51t58.5 -22 q31 -2 61.5 10t53.5 41t24 69z" glyph-name="ae" horiz-adv-x="858" unicode="æ"/><glyph d="M272 79q47 0 78.5 27t39.5 67h100q-10 -75 -67.5 -125t-138.5 -55l-15 -28q19 4 37 1q36 -4 59.5 -29.5t23.5 -62.5q0 -45 -31.5 -76t-76.5 -31q-36 0 -70 21t-46 50l57 21q8 -13 25.5 -23t33.5 -10q20 0 33.5 14t13.5 34q0 35 -33 42q-25 7 -54 -8l-48 28l32 61 q-86 15 -138.5 83.5t-52.5 169.5q0 115 67 187.5t173 72.5q85 0 145.5 -49.5t70.5 -127.5h-100q-10 40 -41.5 67t-77.5 27q-58 0 -96.5 -47t-38.5 -125q0 -80 38.5 -128t97.5 -48z" glyph-name="ccedilla" horiz-adv-x="525" unicode="ç"/><glyph d="M228 549l-129 131h123l102 -131h-96zM272 -11q-108 0 -173 69t-65 188q0 116 65 188t171 72q110 0 170.5 -81t53.5 -206h-360v-1q0 -67 37.5 -106t101.5 -39q37 0 72.5 20.5t49.5 65.5h91q-11 -76 -69 -123t-145 -47zM137 304h255q-4 53 -37 85.5t-88 32.5t-90.5 -33 t-39.5 -85z" glyph-name="egrave" horiz-adv-x="529" unicode="è"/><glyph d="M306 548h-97l102 131h123zM272 -11q-108 0 -173 69t-65 188q0 116 65 188t171 72q110 0 170.5 -81t53.5 -206h-360v-1q0 -67 37.5 -106t101.5 -39q37 0 72.5 20.5t49.5 65.5h91q-11 -76 -69 -123t-145 -47zM137 304h255q-4 53 -37 85.5t-88 32.5t-90.5 -33t-39.5 -85z " glyph-name="eacute" horiz-adv-x="529" unicode="é"/><glyph d="M193 703h135l106 -157h-103l-70 100l-70 -100h-102zM272 -11q-108 0 -173 69t-65 188q0 116 65 188t171 72q110 0 170.5 -81t53.5 -206h-360v-1q0 -67 37.5 -106t101.5 -39q37 0 72.5 20.5t49.5 65.5h91q-11 -76 -69 -123t-145 -47zM137 304h255q-4 53 -37 85.5t-88 32.5 t-90.5 -33t-39.5 -85z" glyph-name="ecircumflex" horiz-adv-x="529" unicode="ê"/><glyph d="M118 560v119h111v-119h-111zM304 560v119h112v-119h-112zM272 -11q-108 0 -173 69t-65 188q0 116 65 188t171 72q110 0 170.5 -81t53.5 -206h-360v-1q0 -67 37.5 -106t101.5 -39q37 0 72.5 20.5t49.5 65.5h91q-11 -76 -69 -123t-145 -47zM137 304h255q-4 53 -37 85.5 t-88 32.5t-90.5 -33t-39.5 -85z" glyph-name="edieresis" horiz-adv-x="529" unicode="ë"/><glyph d="M92 544l-128 132h123l102 -132h-97zM83 0v500h100v-500h-100z" glyph-name="igrave" horiz-adv-x="237" unicode="ì"/><glyph d="M133 543h-97l102 131h123zM46 0v500h101v-500h-101z" glyph-name="iacute" horiz-adv-x="264" unicode="í"/><glyph d="M69 698h135l105 -156h-102l-70 99l-70 -99h-102zM94 0v500h101v-500h-101z" glyph-name="icircumflex" horiz-adv-x="300" unicode="î"/><glyph d="M-21 556v119h111v-119h-111zM165 556v119h111v-119h-111zM79 0v500h101v-500h-101z" glyph-name="idieresis" horiz-adv-x="283" unicode="ï"/><glyph d="M602 634v-85h-86v-549h-92v73q-16 -31 -60 -57.5t-102 -26.5q-90 0 -159 69.5t-69 188.5t66.5 188.5t158.5 69.5q111 0 165 -81v125h-81v85h81v66h92v-66h86zM278 79q65 0 105.5 46.5t40.5 118.5q0 76 -40.5 124.5t-105.5 48.5q-63 0 -102.5 -46t-39.5 -118 q0 -77 39.5 -125.5t102.5 -48.5z" glyph-name="eth" horiz-adv-x="671" unicode="ð"/><glyph d="M360 551q-59 0 -99 57q-13 22 -32 22q-27 0 -30 -35q0 -15 6 -35h-77q-3 15 -3 29q-2 51 26.5 83.5t74.5 32.5q61 0 99 -57q13 -22 32 -22q17 0 25 14.5t4 39.5q0 2 -1.5 7.5t-2.5 8.5h76q2 -8 2 -13q8 -57 -20 -94.5t-80 -37.5zM69 0v500h96v-65q19 30 58.5 54t93.5 24 q32 0 63 -10.5t60 -32.5t47 -64t18 -99v-307h-103v297q0 64 -29 97t-77 33q-55 0 -93 -46.5t-38 -122.5v-258h-96z" glyph-name="ntilde" unicode="ñ"/><glyph d="M234 544l-129 131h123l102 -131h-96zM274 -5q-103 0 -171.5 72t-68.5 183q0 112 68.5 184.5t171.5 72.5t171 -72t68 -185q0 -111 -68.5 -183t-170.5 -72zM273 85q67 0 106 46t39 118q0 74 -38.5 121t-105.5 47q-66 0 -104.5 -47t-38.5 -120q0 -72 38.5 -118.5 t103.5 -46.5z" glyph-name="ograve" horiz-adv-x="547" unicode="ò"/><glyph d="M311 543h-97l102 131h123zM274 -5q-103 0 -171.5 72t-68.5 183q0 112 68.5 184.5t171.5 72.5t171 -72t68 -185q0 -111 -68.5 -183t-170.5 -72zM273 85q67 0 106 46t39 118q0 74 -38.5 121t-105.5 47q-66 0 -104.5 -47t-38.5 -120q0 -72 38.5 -118.5t103.5 -46.5z" glyph-name="oacute" horiz-adv-x="547" unicode="ó"/><glyph d="M198 699h135l106 -157h-103l-70 100l-70 -100h-102zM274 -5q-103 0 -171.5 72t-68.5 183q0 112 68.5 184.5t171.5 72.5t171 -72t68 -185q0 -111 -68.5 -183t-170.5 -72zM273 85q67 0 106 46t39 118q0 74 -38.5 121t-105.5 47q-66 0 -104.5 -47t-38.5 -120 q0 -72 38.5 -118.5t103.5 -46.5z" glyph-name="ocircumflex" horiz-adv-x="547" unicode="ô"/><glyph d="M340 542q-59 0 -99 57q-13 22 -32 22q-27 0 -30 -35q0 -16 6 -35h-77q-3 15 -3 29q-2 51 26.5 83.5t74.5 32.5q61 0 99 -57q13 -22 32 -22q17 0 25 14.5t4 39.5q0 2 -1.5 7.5t-2.5 8.5h76q2 -8 2 -13q8 -57 -20 -94.5t-80 -37.5zM274 -5q-103 0 -171.5 72t-68.5 183 q0 112 68.5 184.5t171.5 72.5t171 -72t68 -185q0 -111 -68.5 -183t-170.5 -72zM273 85q67 0 106 46t39 118q0 74 -38.5 121t-105.5 47q-66 0 -104.5 -47t-38.5 -120q0 -72 38.5 -118.5t103.5 -46.5z" glyph-name="otilde" horiz-adv-x="547" unicode="õ"/><glyph d="M123 556v119h111v-119h-111zM309 556v119h112v-119h-112zM274 -5q-103 0 -171.5 72t-68.5 183q0 112 68.5 184.5t171.5 72.5t171 -72t68 -185q0 -111 -68.5 -183t-170.5 -72zM273 85q67 0 106 46t39 118q0 74 -38.5 121t-105.5 47q-66 0 -104.5 -47t-38.5 -120 q0 -72 38.5 -118.5t103.5 -46.5z" glyph-name="odieresis" horiz-adv-x="547" unicode="ö"/><glyph d="M308 415v119h111v-119h-111zM88 248v79h555v-79h-555zM308 34v120h111v-120h-111z" glyph-name="divide" horiz-adv-x="727" unicode="÷"/><glyph d="M537 500l-76 -84q52 -69 52 -166q0 -111 -68.5 -183t-170.5 -72q-84 0 -147 50l-40 -45h-90l84 93q-47 67 -47 157q0 112 68.5 184.5t171.5 72.5q79 0 140 -44l33 37h90zM131 250q0 -45 16 -83l205 228q-33 22 -78 22q-66 0 -104.5 -47t-38.5 -120zM418 249q0 56 -21 95 l-208 -231q34 -28 84 -28q67 0 106 46t39 118z" glyph-name="oslash" horiz-adv-x="570" unicode="ø"/><glyph d="M244 544l-129 131h123l102 -131h-96zM252 -13q-32 0 -63 10.5t-60 32.5t-47 64t-18 99v307h103v-297q0 -63 29 -96.5t77 -33.5q56 0 93.5 46t37.5 123v258h96v-500h-96v65q-19 -30 -58.5 -54t-93.5 -24z" glyph-name="ugrave" unicode="ù"/><glyph d="M321 543h-97l102 131h123zM252 -13q-32 0 -63 10.5t-60 32.5t-47 64t-18 99v307h103v-297q0 -63 29 -96.5t77 -33.5q56 0 93.5 46t37.5 123v258h96v-500h-96v65q-19 -30 -58.5 -54t-93.5 -24z" glyph-name="uacute" unicode="ú"/><glyph d="M208 699h135l106 -157h-103l-70 100l-70 -100h-102zM252 -13q-32 0 -63 10.5t-60 32.5t-47 64t-18 99v307h103v-297q0 -63 29 -96.5t77 -33.5q56 0 93.5 46t37.5 123v258h96v-500h-96v65q-19 -30 -58.5 -54t-93.5 -24z" glyph-name="ucircumflex" unicode="û"/><glyph d="M134 556v119h111v-119h-111zM320 556v119h112v-119h-112zM252 -13q-32 0 -63 10.5t-60 32.5t-47 64t-18 99v307h103v-297q0 -63 29 -96.5t77 -33.5q56 0 93.5 46t37.5 123v258h96v-500h-96v65q-19 -30 -58.5 -54t-93.5 -24z" glyph-name="udieresis" unicode="ü"/><glyph d="M282 543h-97l102 131h123zM38 -200l-1 88h45q63 0 91 71l26 72l-195 469h105l140 -353l132 353h105l-220 -565q-54 -135 -175 -135h-53z" glyph-name="yacute" horiz-adv-x="490" unicode="ý"/><glyph d="M64 -128v783h92v-228q15 30 59.5 57t102.5 27q90 0 159 -69.5t69 -188.5t-67 -188.5t-158 -69.5q-58 0 -100.5 23t-64.5 58v-204h-92zM301 83q63 0 102.5 46t39.5 118q0 77 -39.5 125.5t-102.5 48.5q-64 0 -104.5 -46.5t-40.5 -118.5q0 -76 40.5 -124.5t104.5 -48.5z" glyph-name="thorn" horiz-adv-x="577" unicode="þ"/><glyph d="M94 556v119h111v-119h-111zM280 556v119h112v-119h-112zM38 -200l-1 88h45q63 0 91 71l26 72l-195 469h105l140 -353l132 353h105l-220 -565q-54 -135 -175 -135h-53z" glyph-name="ydieresis" horiz-adv-x="490" unicode="ÿ"/><glyph d="M191 754v78h310v-78h-310zM137 0l-113 1l268 699h102l268 -700h-112l-68 178h-279zM232 269h222l-111 309z" glyph-name="Amacron" horiz-adv-x="686" unicode="Ā"/><glyph d="M109 563v78h310v-78h-310zM203 -10q-70 0 -119.5 41t-49.5 110q0 71 45 107q47 37 137 45q91 9 117 24q24 15 24 41q0 29 -25.5 48t-65.5 19q-51 0 -79.5 -25.5t-33.5 -61.5l-101 -1q8 77 64.5 126t145.5 49q92 0 143.5 -48t51.5 -124v-340h-100v63q-57 -73 -154 -73z M218 74q51 -2 94.5 29.5t44.5 90.5l1 53q-29 -20 -123 -28q-98 -8 -98 -72q0 -31 22.5 -51t58.5 -22z" glyph-name="amacron" horiz-adv-x="516" unicode="ā"/><glyph d="M343 741q-81 0 -127 51t-48 125h79q2 -45 26.5 -75.5t69.5 -29.5q46 1 71 31.5t26 73.5h79q-2 -74 -48 -125t-128 -51zM137 0l-113 1l268 699h102l268 -700h-112l-68 178h-279zM232 269h222l-111 309z" glyph-name="Abreve" horiz-adv-x="686" unicode="Ă"/><glyph d="M260 551q-81 0 -127 51t-48 125h79q2 -45 26.5 -75.5t69.5 -29.5q46 1 71 31.5t26 73.5h79q-2 -74 -48 -125t-128 -51zM203 -10q-70 0 -119.5 41t-49.5 110q0 71 45 107q47 37 137 45q91 9 117 24q24 15 24 41q0 29 -25.5 48t-65.5 19q-51 0 -79.5 -25.5t-33.5 -61.5 l-101 -1q8 77 64.5 126t145.5 49q92 0 143.5 -48t51.5 -124v-340h-100v63q-57 -73 -154 -73zM218 74q51 -2 94.5 29.5t44.5 90.5l1 53q-29 -20 -123 -28q-98 -8 -98 -72q0 -31 22.5 -51t58.5 -22z" glyph-name="abreve" horiz-adv-x="516" unicode="ă"/><glyph d="M678 -144l41 -57q-62 -63 -153 -58q-57 3 -92 31.5t-35 80.5q0 95 116 147h-5l-68 178h-279l-66 -178l-113 1l268 699h102l267 -697l9 -3q-62 -4 -102.5 -46.5t-40.5 -89.5q0 -26 16 -42.5t44 -16.5q26 0 51.5 14.5t39.5 36.5zM232 269h222l-111 309z" glyph-name="Aogonek" horiz-adv-x="600" unicode="Ą"/><glyph d="M466 -145l42 -57q-62 -63 -154 -58q-57 3 -92 31.5t-35 80.5q0 100 130 153v58q-57 -73 -154 -73q-70 0 -119.5 41t-49.5 110q0 71 45 107q47 37 137 45q91 9 117 24q24 15 24 41q0 29 -25.5 48t-65.5 19q-51 0 -79.5 -25.5t-33.5 -61.5l-101 -1q8 77 64.5 126t145.5 49 q92 0 143.5 -48t51.5 -124v-340h-2l3 -1q-62 -4 -102.5 -46.5t-40.5 -89.5q0 -26 16 -42.5t44 -16.5q26 0 51 14.5t40 36.5zM218 74q51 -2 94.5 29.5t44.5 90.5l1 53q-29 -20 -123 -28q-98 -8 -98 -72q0 -31 22.5 -51t58.5 -22z" glyph-name="aogonek" horiz-adv-x="516" unicode="ą"/><glyph d="M407 749h-97l102 131h123zM368 -5q-138 0 -231.5 100t-92.5 252q1 157 93.5 258.5t236.5 101.5q123 0 203.5 -70t96.5 -178h-112q-13 63 -64.5 106.5t-126.5 43.5q-97 0 -156.5 -75t-59.5 -188q0 -110 58.5 -181.5t153.5 -71.5q77 0 130 45t65 107h112 q-18 -108 -99.5 -179t-206.5 -71z" glyph-name="Cacute" horiz-adv-x="713" unicode="Ć"/><glyph d="M300 543h-97l102 131h123zM270 -7q-104 0 -170 71.5t-66 185.5q0 115 67 187.5t173 72.5q85 0 145.5 -49.5t70.5 -127.5h-100q-10 40 -41.5 67t-77.5 27q-58 0 -96.5 -47t-38.5 -125q0 -80 38.5 -128t97.5 -48q47 0 78.5 27t39.5 67h100q-11 -79 -72.5 -129.5 t-147.5 -50.5z" glyph-name="cacute" horiz-adv-x="525" unicode="ć"/><glyph d="M294 904h135l106 -157h-103l-70 100l-70 -100h-102zM368 -5q-138 0 -231.5 100t-92.5 252q1 157 93.5 258.5t236.5 101.5q123 0 203.5 -70t96.5 -178h-112q-13 63 -64.5 106.5t-126.5 43.5q-97 0 -156.5 -75t-59.5 -188q0 -110 58.5 -181.5t153.5 -71.5q77 0 130 45 t65 107h112q-18 -108 -99.5 -179t-206.5 -71z" glyph-name="Ccircumflex" horiz-adv-x="713" unicode="Ĉ"/><glyph d="M187 699h135l106 -157h-103l-70 100l-70 -100h-102zM270 -7q-104 0 -170 71.5t-66 185.5q0 115 67 187.5t173 72.5q85 0 145.5 -49.5t70.5 -127.5h-100q-10 40 -41.5 67t-77.5 27q-58 0 -96.5 -47t-38.5 -125q0 -80 38.5 -128t97.5 -48q47 0 78.5 27t39.5 67h100 q-11 -79 -72.5 -129.5t-147.5 -50.5z" glyph-name="ccircumflex" horiz-adv-x="525" unicode="ĉ"/><glyph d="M312 765v119h111v-119h-111zM368 -5q-138 0 -231.5 100t-92.5 252q1 157 93.5 258.5t236.5 101.5q123 0 203.5 -70t96.5 -178h-112q-13 63 -64.5 106.5t-126.5 43.5q-97 0 -156.5 -75t-59.5 -188q0 -110 58.5 -181.5t153.5 -71.5q77 0 130 45t65 107h112 q-18 -108 -99.5 -179t-206.5 -71z" glyph-name="Cdotaccent" horiz-adv-x="713" unicode="Ċ"/><glyph d="M205 559v119h111v-119h-111zM270 -7q-104 0 -170 71.5t-66 185.5q0 115 67 187.5t173 72.5q85 0 145.5 -49.5t70.5 -127.5h-100q-10 40 -41.5 67t-77.5 27q-58 0 -96.5 -47t-38.5 -125q0 -80 38.5 -128t97.5 -48q47 0 78.5 27t39.5 67h100q-11 -79 -72.5 -129.5 t-147.5 -50.5z" glyph-name="cdotaccent" horiz-adv-x="525" unicode="ċ"/><glyph d="M197 917h99l73 -100l74 100h99l-106 -157h-135zM368 -5q-138 0 -231.5 100t-92.5 252q1 157 93.5 258.5t236.5 101.5q123 0 203.5 -70t96.5 -178h-112q-13 63 -64.5 106.5t-126.5 43.5q-97 0 -156.5 -75t-59.5 -188q0 -110 58.5 -181.5t153.5 -71.5q77 0 130 45t65 107 h112q-18 -108 -99.5 -179t-206.5 -71z" glyph-name="Ccaron" horiz-adv-x="713" unicode="Č"/><glyph d="M89 711h99l73 -100l74 100h99l-106 -157h-135zM270 -7q-104 0 -170 71.5t-66 185.5q0 115 67 187.5t173 72.5q85 0 145.5 -49.5t70.5 -127.5h-100q-10 40 -41.5 67t-77.5 27q-58 0 -96.5 -47t-38.5 -125q0 -80 38.5 -128t97.5 -48q47 0 78.5 27t39.5 67h100 q-11 -79 -72.5 -129.5t-147.5 -50.5z" glyph-name="ccaron" horiz-adv-x="525" unicode="č"/><glyph d="M179 911h99l73 -100l74 100h99l-106 -157h-135zM79 -2v702l252 2q143 2 236 -96t93 -251q0 -155 -90 -254.5t-229 -100.5zM174 94l153 2q101 1 167 71.5t66 183.5q0 114 -65 184.5t-164 68.5l-157 -2v-508z" glyph-name="Dcaron" horiz-adv-x="704" unicode="Ď"/><glyph d="M262 -11q-90 0 -159 69.5t-69 188.5t66.5 188.5t158.5 69.5q111 0 165 -81v276h92v-700h-92v73q-16 -31 -60 -57.5t-102 -26.5zM55 700h99l73 -100l74 100h99l-106 -157h-135zM278 79q65 0 105.5 46.5t40.5 118.5q0 76 -40.5 124.5t-105.5 48.5q-63 0 -102.5 -46 t-39.5 -118q0 -77 39.5 -125.5t102.5 -48.5z" glyph-name="dcaron" horiz-adv-x="585" unicode="ď"/><glyph d="M372 702q143 2 236 -96t93 -251q0 -155 -90 -254.5t-229 -100.5l-262 -2v311h-72v83h72v308zM368 96q101 1 167 71.5t66 183.5q0 114 -65 184.5t-164 68.5l-157 -2v-210h174v-83h-174v-215z" glyph-name="Dcroat" horiz-adv-x="788" unicode="Đ"/><glyph d="M157 754v78h310v-78h-310zM79 0v700h453v-96h-356v-203h335v-93h-335v-212h356v-96h-453z" glyph-name="Emacron" horiz-adv-x="566" unicode="Ē"/><glyph d="M117 558v78h310v-78h-310zM272 -11q-108 0 -173 69t-65 188q0 116 65 188t171 72q110 0 170.5 -81t53.5 -206h-360v-1q0 -67 37.5 -106t101.5 -39q37 0 72.5 20.5t49.5 65.5h91q-11 -76 -69 -123t-145 -47zM137 304h255q-4 53 -37 85.5t-88 32.5t-90.5 -33t-39.5 -85z " glyph-name="emacron" horiz-adv-x="529" unicode="ē"/><glyph d="M308 741q-81 0 -127 51t-48 125h79q2 -45 26.5 -75.5t69.5 -29.5q46 1 71 31.5t26 73.5h79q-2 -74 -48 -125t-128 -51zM79 0v700h453v-96h-356v-203h335v-93h-335v-212h356v-96h-453z" glyph-name="Ebreve" horiz-adv-x="566" unicode="Ĕ"/><glyph d="M268 546q-81 0 -127 51t-48 125h79q2 -45 26.5 -75.5t69.5 -29.5q46 1 71 31.5t26 73.5h79q-2 -74 -48 -125t-128 -51zM272 -11q-108 0 -173 69t-65 188q0 116 65 188t171 72q110 0 170.5 -81t53.5 -206h-360v-1q0 -67 37.5 -106t101.5 -39q37 0 72.5 20.5t49.5 65.5h91 q-11 -76 -69 -123t-145 -47zM137 304h255q-4 53 -37 85.5t-88 32.5t-90.5 -33t-39.5 -85z" glyph-name="ebreve" horiz-adv-x="529" unicode="ĕ"/><glyph d="M251 759v119h111v-119h-111zM79 0v700h453v-96h-356v-203h335v-93h-335v-212h356v-96h-453z" glyph-name="Edotaccent" horiz-adv-x="566" unicode="Ė"/><glyph d="M211 564v119h111v-119h-111zM272 -11q-108 0 -173 69t-65 188q0 116 65 188t171 72q110 0 170.5 -81t53.5 -206h-360v-1q0 -67 37.5 -106t101.5 -39q37 0 72.5 20.5t49.5 65.5h91q-11 -76 -69 -123t-145 -47zM137 304h255q-4 53 -37 85.5t-88 32.5t-90.5 -33t-39.5 -85z " glyph-name="edotaccent" horiz-adv-x="529" unicode="ė"/><glyph d="M538 -144l42 -57q-62 -63 -154 -58q-57 3 -92 31.5t-35 80.5q0 95 117 147h-337v700h453v-96h-356v-203h335v-93h-335v-212h356v-96h-2q-62 -4 -102.5 -46.5t-40.5 -89.5q0 -26 16 -42.5t44 -16.5q26 0 51 14.5t40 36.5z" glyph-name="Eogonek" horiz-adv-x="566" unicode="Ę"/><glyph d="M494 219h-360v-1q0 -67 37.5 -106t101.5 -39q37 0 72.5 20.5t49.5 65.5h91q-11 -72 -64.5 -119t-134.5 -51q-40 -17 -63.5 -52t-23.5 -70q0 -26 16 -42.5t44 -16.5q26 0 51 14.5t40 36.5l42 -57q-62 -63 -154 -58q-57 3 -92 31.5t-35 80.5q0 87 100 139q-83 18 -130.5 84 t-47.5 167q0 116 65 188t171 72q110 0 170.5 -81t53.5 -206zM267 422q-55 0 -90.5 -33t-39.5 -85h255q-4 53 -37 85.5t-88 32.5z" glyph-name="eogonek" horiz-adv-x="529" unicode="ę"/><glyph d="M135 911h99l73 -100l74 100h99l-106 -157h-135zM79 0v700h453v-96h-356v-203h335v-93h-335v-212h356v-96h-453z" glyph-name="Ecaron" horiz-adv-x="566" unicode="Ě"/><glyph d="M95 716h99l73 -100l74 100h99l-106 -157h-135zM272 -11q-108 0 -173 69t-65 188q0 116 65 188t171 72q110 0 170.5 -81t53.5 -206h-360v-1q0 -67 37.5 -106t101.5 -39q37 0 72.5 20.5t49.5 65.5h91q-11 -76 -69 -123t-145 -47zM137 304h255q-4 53 -37 85.5t-88 32.5 t-90.5 -33t-39.5 -85z" glyph-name="ecaron" horiz-adv-x="529" unicode="ě"/><glyph d="M301 899h135l106 -157h-103l-70 100l-70 -100h-102zM367 -5q-139 0 -231.5 99.5t-91.5 252.5q1 156 94.5 258t237.5 102q122 0 203.5 -70t97.5 -178h-112q-11 62 -64 106t-129 44q-97 0 -157.5 -75.5t-60.5 -187.5q0 -109 60.5 -182t154.5 -72q72 1 131 43.5t76 127.5 h-204v95l306 -1v-357h-87l-7 109q-34 -56 -92 -85t-125 -29z" glyph-name="Gcircumflex" horiz-adv-x="752" unicode="Ĝ"/><glyph d="M218 700h135l106 -157h-103l-70 100l-70 -100h-102zM274 -208q-98 0 -158.5 50.5t-64.5 124.5l96 -1q6 -29 23 -49t39.5 -28t38.5 -11t29 -3q70 0 112.5 42t42.5 128v50q-23 -45 -72 -72.5t-105 -27.5q-102 0 -161.5 71.5t-59.5 186.5q0 112 63 185t161 73q54 0 102 -27 t72 -71v87h93v-455q0 -125 -68.5 -189t-182.5 -64zM279 83q64 0 105 48.5t41 124.5q0 72 -41 118.5t-105 46.5q-63 0 -102.5 -48.5t-39.5 -125.5q0 -72 39.5 -118t102.5 -46z" glyph-name="gcircumflex" horiz-adv-x="589" unicode="ĝ"/><glyph d="M376 741q-81 0 -127 51t-48 125h79q2 -45 26.5 -75.5t69.5 -29.5q46 1 71 31.5t26 73.5h79q-2 -74 -48 -125t-128 -51zM367 -5q-139 0 -231.5 99.5t-91.5 252.5q1 156 94.5 258t237.5 102q122 0 203.5 -70t97.5 -178h-112q-11 62 -64 106t-129 44q-97 0 -157.5 -75.5 t-60.5 -187.5q0 -109 60.5 -182t154.5 -72q72 1 131 43.5t76 127.5h-204v95l306 -1v-357h-87l-7 109q-34 -56 -92 -85t-125 -29z" glyph-name="Gbreve" horiz-adv-x="752" unicode="Ğ"/><glyph d="M294 543q-81 0 -127 51t-48 125h79q2 -45 26.5 -75.5t69.5 -29.5q46 1 71 31.5t26 73.5h79q-2 -74 -48 -125t-128 -51zM274 -208q-98 0 -158.5 50.5t-64.5 124.5l96 -1q6 -29 23 -49t39.5 -28t38.5 -11t29 -3q70 0 112.5 42t42.5 128v50q-23 -45 -72 -72.5t-105 -27.5 q-102 0 -161.5 71.5t-59.5 186.5q0 112 63 185t161 73q54 0 102 -27t72 -71v87h93v-455q0 -125 -68.5 -189t-182.5 -64zM279 83q64 0 105 48.5t41 124.5q0 72 -41 118.5t-105 46.5q-63 0 -102.5 -48.5t-39.5 -125.5q0 -72 39.5 -118t102.5 -46z" glyph-name="gbreve" horiz-adv-x="589" unicode="ğ"/><glyph d="M319 759v119h111v-119h-111zM367 -5q-139 0 -231.5 99.5t-91.5 252.5q1 156 94.5 258t237.5 102q122 0 203.5 -70t97.5 -178h-112q-11 62 -64 106t-129 44q-97 0 -157.5 -75.5t-60.5 -187.5q0 -109 60.5 -182t154.5 -72q72 1 131 43.5t76 127.5h-204v95l306 -1v-357h-87 l-7 109q-34 -56 -92 -85t-125 -29z" glyph-name="Gdotaccent" horiz-adv-x="752" unicode="Ġ"/><glyph d="M236 561v119h111v-119h-111zM274 -208q-98 0 -158.5 50.5t-64.5 124.5l96 -1q6 -29 23 -49t39.5 -28t38.5 -11t29 -3q70 0 112.5 42t42.5 128v50q-23 -45 -72 -72.5t-105 -27.5q-102 0 -161.5 71.5t-59.5 186.5q0 112 63 185t161 73q54 0 102 -27t72 -71v87h93v-455 q0 -125 -68.5 -189t-182.5 -64zM279 83q64 0 105 48.5t41 124.5q0 72 -41 118.5t-105 46.5q-63 0 -102.5 -48.5t-39.5 -125.5q0 -72 39.5 -118t102.5 -46z" glyph-name="gdotaccent" horiz-adv-x="589" unicode="ġ"/><glyph d="M367 -5q-139 0 -231.5 99.5t-91.5 252.5q1 156 94.5 258t237.5 102q122 0 203.5 -70t97.5 -178h-112q-11 62 -64 106t-129 44q-97 0 -157.5 -75.5t-60.5 -187.5q0 -109 60.5 -182t154.5 -72q72 1 131 43.5t76 127.5h-204v95l306 -1v-357h-87l-7 109q-34 -56 -92 -85 t-125 -29zM326 -289v56q54 2 51 58h-56v119h111l-1 -119q0 -57 -28 -85.5t-77 -28.5z" glyph-name="Gcommaaccent" horiz-adv-x="752" unicode="Ģ"/><glyph d="M274 -208q-98 0 -158.5 50.5t-64.5 124.5l96 -1q6 -29 23 -49t39.5 -28t38.5 -11t29 -3q70 0 112.5 42t42.5 128v50q-23 -45 -72 -72.5t-105 -27.5q-102 0 -161.5 71.5t-59.5 186.5q0 112 63 185t161 73q54 0 102 -27t72 -71v87h93v-455q0 -125 -68.5 -189t-182.5 -64z M279 83q64 0 105 48.5t41 124.5q0 72 -41 118.5t-105 46.5q-63 0 -102.5 -48.5t-39.5 -125.5q0 -72 39.5 -118t102.5 -46zM245 -489v56q54 2 51 58h-56v119h111l-1 -119q0 -57 -28 -85.5t-77 -28.5z" glyph-name="gcommaaccent" horiz-adv-x="589" unicode="ģ"/><glyph d="M279 899h135l106 -157h-103l-70 100l-70 -100h-102zM79 0v700h105v-297h341v297h105v-700h-105v315h-341v-315h-105z" glyph-name="Hcircumflex" horiz-adv-x="709" unicode="Ĥ"/><glyph d="M217 948h135l106 -157h-103l-70 100l-70 -100h-102zM69 0v700h96v-265q19 30 58.5 54t93.5 24q32 0 63 -10.5t60 -32.5t47 -64t18 -99v-307h-103v297q0 63 -29 96.5t-77 33.5q-56 0 -93.5 -46t-37.5 -123v-258h-96z" glyph-name="hcircumflex" unicode="ĥ"/><glyph d="M675 593v-86h-45v-507h-105v315h-341v-315h-105v507h-44v86h44v107h105v-107h341v107h105v-107h45zM525 403v104h-341v-104h341z" glyph-name="Hbar" horiz-adv-x="761" unicode="Ħ"/><glyph d="M372 513q32 0 63 -10.5t60 -32.5t47 -64t18 -99v-307h-103v297q0 63 -29 96.5t-77 33.5q-56 0 -93.5 -46t-37.5 -123v-258h-96v558h-55v75h55v67h96v-67h107v-75h-107v-123q19 30 58.5 54t93.5 24z" glyph-name="hbar" horiz-adv-x="624" unicode="ħ"/><glyph d="M202 742q-59 0 -99 57q-13 22 -32 22q-27 0 -30 -35q0 -16 6 -35h-77q-3 15 -3 29q-2 51 26.5 83.5t74.5 32.5q61 0 99 -57q13 -22 32 -22q17 0 25 14.5t4 39.5q0 2 -1.5 7.5t-2.5 8.5h76q2 -8 2 -13q8 -57 -20 -94.5t-80 -37.5zM84 0v700h103v-700h-103z" glyph-name="Itilde" horiz-adv-x="271" unicode="Ĩ"/><glyph d="M209 542q-59 0 -99 57q-13 22 -32 22q-27 0 -30 -35q0 -16 6 -35h-77q-3 10 -3 29q-2 51 26.5 83.5t73.5 32.5q62 0 100 -57q12 -22 32 -22q16 0 24 14.5t5 39.5q-1 2 -5 16h77q2 -8 2 -13q8 -57 -20.5 -94.5t-79.5 -37.5zM92 0v500h101v-500h-101z" glyph-name="itilde" horiz-adv-x="303" unicode="ĩ"/><glyph d="M-32 754v78h310v-78h-310zM68 0v700h103v-700h-103z" glyph-name="Imacron" horiz-adv-x="239" unicode="Ī"/><glyph d="M-18 554v78h310v-78h-310zM84 0v500h100v-500h-100z" glyph-name="imacron" horiz-adv-x="284" unicode="ī"/><glyph d="M124 741q-82 0 -127.5 51t-47.5 125h79q2 -45 26.5 -75.5t69.5 -29.5q46 1 70.5 31.5t26.5 73.5h79q-2 -74 -48 -125t-128 -51zM72 0v700h103v-700h-103z" glyph-name="Ibreve" horiz-adv-x="240" unicode="Ĭ"/><glyph d="M152 541q-81 0 -127 51t-48 125h79q2 -45 26.5 -75.5t69.5 -29.5q46 1 71 31.5t26 73.5h79q-2 -74 -48 -125t-128 -51zM102 0v500h101v-500h-101z" glyph-name="ibreve" horiz-adv-x="321" unicode="ĭ"/><glyph d="M190 -144l42 -58q-62 -63 -154 -58q-57 3 -92 31.5t-35 80.5q0 48 32.5 87.5t95.5 64.5v696h103v-700h-3l3 -1q-62 -4 -102.5 -46.5t-40.5 -89.5q0 -26 16 -42t44 -16q27 0 52 14t39 37z" glyph-name="Iogonek" horiz-adv-x="256" unicode="Į"/><glyph d="M172 700v-117h-108v117h108zM175 -144l42 -57q-62 -63 -154 -58q-57 3 -92 31.5t-35 80.5q0 48 33.5 88t98.5 65v494h101v-500h-2q-62 -4 -102.5 -46.5t-40.5 -89.5q0 -26 16 -42.5t44 -16.5q26 0 51 14.5t40 36.5z" glyph-name="iogonek" horiz-adv-x="236" unicode="į"/><glyph d="M78 759v119h111v-119h-111zM84 0v700h103v-700h-103z" glyph-name="Idotaccent" horiz-adv-x="271" unicode="İ"/><glyph d="M64 0v500h101v-500h-101z" glyph-name="dotlessi" horiz-adv-x="229" unicode="ı"/><glyph d="M325 893h135l106 -157h-103l-70 100l-70 -100h-102zM232 -8q-97 0 -157 59t-61 157v55h95v-52q1 -57 35 -91t88 -34q52 0 84.5 36t32.5 101v477h102v-480q0 -105 -62.5 -166.5t-156.5 -61.5z" glyph-name="Jcircumflex" horiz-adv-x="520" unicode="Ĵ"/><glyph d="M93 690h135l106 -157h-102l-71 100l-70 -100h-102zM24 -177v92h22q32 0 51 19t19 58v508h96v-524q0 -71 -42 -112t-109 -41h-37z" glyph-name="jcircumflex" horiz-adv-x="309" unicode="ĵ"/><glyph d="M79 0v700h95v-348l317 348h122l-292 -320l302 -380h-127l-244 309l-78 -87v-222h-95zM266 -289v56q54 2 51 58h-56v119h111l-1 -119q0 -57 -28 -85.5t-77 -28.5z" glyph-name="Kcommaaccent" horiz-adv-x="632" unicode="Ķ"/><glyph d="M69 0v700h95v-406l193 206h119l-187 -199l208 -300l-109 -1l-161 233l-63 -67v-166h-95zM205 -289v56q54 2 51 58h-56v119h111l-1 -119q0 -57 -28 -85.5t-77 -28.5z" glyph-name="kcommaaccent" horiz-adv-x="511" unicode="ķ"/><glyph d="M169 743h-97l102 131h123zM79 0v700h104v-601h313v-99h-417z" glyph-name="Lacute" horiz-adv-x="515" unicode="Ĺ"/><glyph d="M156 823h-97l102 131h123zM69 0v700h101v-700h-101z" glyph-name="lacute" horiz-adv-x="239" unicode="ĺ"/><glyph d="M79 0v700h104v-601h313v-99h-417zM207 -289v56q54 2 51 58h-56v119h111l-1 -119q0 -57 -28 -85.5t-77 -28.5z" glyph-name="Lcommaaccent" horiz-adv-x="515" unicode="Ļ"/><glyph d="M69 0v700h101v-700h-101zM69 -289v56q54 2 51 58h-56v119h111l-1 -119q0 -57 -28 -85.5t-77 -28.5z" glyph-name="lcommaaccent" horiz-adv-x="239" unicode="ļ"/><glyph d="M-41 911h99l73 -100l74 100h99l-106 -157h-135zM79 0v700h104v-601h313v-99h-417z" glyph-name="Lcaron" horiz-adv-x="515" unicode="Ľ"/><glyph d="M-54 991h99l73 -100l74 100h99l-106 -157h-135zM69 0v700h101v-700h-101z" glyph-name="lcaron" horiz-adv-x="239" unicode="ľ"/><glyph d="M74 743v119h111v-119h-111zM79 0v700h104v-601h313v-99h-417z" glyph-name="Ldot" horiz-adv-x="515" unicode="Ŀ"/><glyph d="M63 732v120h112v-120h-112zM69 0v700h101v-700h-101z" glyph-name="ldot" horiz-adv-x="244" unicode="ŀ"/><glyph d="M183 99h313v-99h-417v279l-78 -39v86l78 39v335h104v-282l141 71v-86l-141 -71v-233z" glyph-name="Lslash" horiz-adv-x="521" unicode="Ł"/><glyph d="M254 508v-86l-84 -33v-389h-101v349l-56 -22v86l56 22v265h101v-225z" glyph-name="lslash" horiz-adv-x="273" unicode="ł"/><glyph d="M395 743h-97l102 131h123zM507 0l-333 551v-551h-95v700h121l341 -565v565h95v-701z" glyph-name="Nacute" horiz-adv-x="715" unicode="Ń"/><glyph d="M330 552h-97l102 131h123zM69 0v500h96v-65q19 30 58.5 54t93.5 24q32 0 63 -10.5t60 -32.5t47 -64t18 -99v-307h-103v297q0 64 -29 97t-77 33q-55 0 -93 -46.5t-38 -122.5v-258h-96z" glyph-name="nacute" unicode="ń"/><glyph d="M507 0l-333 551v-551h-95v700h121l341 -565v565h95v-701zM308 -289v56q54 2 51 58h-56v119h111l-1 -119q0 -57 -28 -85.5t-77 -28.5z" glyph-name="Ncommaaccent" horiz-adv-x="715" unicode="Ņ"/><glyph d="M69 0v500h96v-65q19 30 58.5 54t93.5 24q32 0 63 -10.5t60 -32.5t47 -64t18 -99v-307h-103v297q0 64 -29 97t-77 33q-55 0 -93 -46.5t-38 -122.5v-258h-96zM234 -289v56q54 2 51 58h-56v119h111l-1 -119q0 -57 -28 -85.5t-77 -28.5z" glyph-name="ncommaaccent" unicode="ņ"/><glyph d="M185 911h99l73 -100l74 100h99l-106 -157h-135zM507 0l-333 551v-551h-95v700h121l341 -565v565h95v-701z" glyph-name="Ncaron" horiz-adv-x="715" unicode="Ň"/><glyph d="M120 720h99l73 -100l74 100h99l-106 -157h-135zM69 0v500h96v-65q19 30 58.5 54t93.5 24q32 0 63 -10.5t60 -32.5t47 -64t18 -99v-307h-103v297q0 64 -29 97t-77 33q-55 0 -93 -46.5t-38 -122.5v-258h-96z" glyph-name="ncaron" unicode="ň"/><glyph d="M541 700h95v-701q-3 -208 -208 -208v88q35 0 66 16.5t30 50.5q-1 22 -17 54l-333 551v-551h-95v700h121l341 -565v565z" glyph-name="Eng" horiz-adv-x="715" unicode="Ŋ"/><glyph d="M317 513q32 0 63 -10.5t60 -32.5t47 -64t18 -99v-307q0 -73 -41.5 -120t-117.5 -47v97q31 0 44 16.5t12 53.5v297q0 64 -29 97t-77 33q-55 0 -93 -46.5t-38 -122.5v-258h-96v500h96v-65q19 30 58.5 54t93.5 24z" glyph-name="eng" unicode="ŋ"/><glyph d="M222 754v78h310v-78h-310zM374 -10q-140 0 -235 102.5t-95 257.5t94.5 256.5t235.5 101.5q140 0 235 -102t95 -258q0 -154 -95 -256t-235 -102zM373 87q100 0 164 73t64 185q0 116 -63.5 192t-163.5 76q-99 0 -162 -75.5t-63 -190.5q0 -112 63 -186t161 -74z" glyph-name="Omacron" horiz-adv-x="748" unicode="Ō"/><glyph d="M122 554v78h310v-78h-310zM274 -5q-103 0 -171.5 72t-68.5 183q0 112 68.5 184.5t171.5 72.5t171 -72t68 -185q0 -111 -68.5 -183t-170.5 -72zM273 85q67 0 106 46t39 118q0 74 -38.5 121t-105.5 47q-66 0 -104.5 -47t-38.5 -120q0 -72 38.5 -118.5t103.5 -46.5z" glyph-name="omacron" horiz-adv-x="547" unicode="ō"/><glyph d="M374 741q-81 0 -127 51t-48 125h79q2 -45 26.5 -75.5t69.5 -29.5q46 1 71 31.5t26 73.5h79q-2 -74 -48 -125t-128 -51zM374 -10q-140 0 -235 102.5t-95 257.5t94.5 256.5t235.5 101.5q140 0 235 -102t95 -258q0 -154 -95 -256t-235 -102zM373 87q100 0 164 73t64 185 q0 116 -63.5 192t-163.5 76q-99 0 -162 -75.5t-63 -190.5q0 -112 63 -186t161 -74z" glyph-name="Obreve" horiz-adv-x="748" unicode="Ŏ"/><glyph d="M274 541q-81 0 -127 51t-48 125h79q2 -45 26.5 -75.5t69.5 -29.5q46 1 71 31.5t26 73.5h79q-2 -74 -48 -125t-128 -51zM274 -5q-103 0 -171.5 72t-68.5 183q0 112 68.5 184.5t171.5 72.5t171 -72t68 -185q0 -111 -68.5 -183t-170.5 -72zM273 85q67 0 106 46t39 118 q0 74 -38.5 121t-105.5 47q-66 0 -104.5 -47t-38.5 -120q0 -72 38.5 -118.5t103.5 -46.5z" glyph-name="obreve" horiz-adv-x="547" unicode="ŏ"/><glyph d="M222 759v119h111v-119h-111zM408 759v119h112v-119h-112zM374 -10q-140 0 -235 102.5t-95 257.5t94.5 256.5t235.5 101.5q140 0 235 -102t95 -258q0 -154 -95 -256t-235 -102zM373 87q100 0 164 73t64 185q0 116 -63.5 192t-163.5 76q-99 0 -162 -75.5t-63 -190.5 q0 -112 63 -186t161 -74z" glyph-name="Ohungarumlaut" horiz-adv-x="748" unicode="Ő"/><glyph d="M122 559v119h111v-119h-111zM308 559v119h112v-119h-112zM274 -5q-103 0 -171.5 72t-68.5 183q0 112 68.5 184.5t171.5 72.5t171 -72t68 -185q0 -111 -68.5 -183t-170.5 -72zM273 85q67 0 106 46t39 118q0 74 -38.5 121t-105.5 47q-66 0 -104.5 -47t-38.5 -120 q0 -72 38.5 -118.5t103.5 -46.5z" glyph-name="ohungarumlaut" horiz-adv-x="547" unicode="ő"/><glyph d="M1067 604h-356v-203h335v-93h-335v-212h356v-96h-453v98q-95 -108 -240 -108q-140 0 -235 102.5t-95 257.5t94.5 256.5t235.5 101.5q144 0 240 -107v99h453v-96zM373 87q100 0 164 73t64 185q0 116 -63.5 192t-163.5 76q-99 0 -162 -75.5t-63 -190.5q0 -112 63 -186 t161 -74z" glyph-name="OE" horiz-adv-x="1101" unicode="Œ"/><glyph d="M903 219h-360v-1q0 -67 37.5 -106t100.5 -39q38 0 73.5 20.5t49.5 65.5h91q-11 -76 -69 -123t-145 -47q-146 0 -207 117q-32 -52 -84.5 -81.5t-115.5 -29.5q-103 0 -171.5 72t-68.5 183q0 112 68.5 184.5t171.5 72.5q65 0 118.5 -30.5t84.5 -84.5q63 114 202 114 q111 0 171 -80.5t53 -206.5zM676 422q-55 0 -90.5 -33t-39.5 -85h255q-4 53 -37 85.5t-88 32.5zM273 85q67 0 106 46t39 118q0 74 -38.5 121t-105.5 47q-66 0 -104.5 -47t-38.5 -120q0 -72 38.5 -118.5t103.5 -46.5z" glyph-name="oe" horiz-adv-x="938" unicode="œ"/><glyph d="M362 743h-97l102 131h123zM79 -1v701l295 1q92 0 148.5 -54t56.5 -137q0 -62 -31.5 -108.5t-75.5 -61.5q47 -15 67.5 -54.5t26.5 -109.5q2 -22 3.5 -52t2.5 -42t4 -29t7 -28.5t11 -24.5h-112q-4 11 -7 21t-5 26t-2.5 26t-2 37t-2.5 41q-3 42 -8 65t-18.5 45.5t-41.5 32 t-74 9.5h-143v-304h-99zM178 389h174q57 0 93 29t36 84q0 57 -35 85t-94 28h-174v-226z" glyph-name="Racute" horiz-adv-x="649" unicode="Ŕ"/><glyph d="M203 543h-97l102 131h123zM69 0v500h93v-63q38 73 146 71h18v-99l-13 -1q-151 4 -151 -146v-262h-93z" glyph-name="racute" horiz-adv-x="332" unicode="ŕ"/><glyph d="M79 -1v701l295 1q92 0 148.5 -54t56.5 -137q0 -62 -31.5 -108.5t-75.5 -61.5q47 -15 67.5 -54.5t26.5 -109.5q2 -22 3.5 -52t2.5 -42t4 -29t7 -28.5t11 -24.5h-112q-4 11 -7 21t-5 26t-2.5 26t-2 37t-2.5 41q-3 42 -8 65t-18.5 45.5t-41.5 32t-74 9.5h-143v-304h-99z M178 389h174q57 0 93 29t36 84q0 57 -35 85t-94 28h-174v-226zM274 -289v56q54 2 51 58h-56v119h111l-1 -119q0 -57 -28 -85.5t-77 -28.5z" glyph-name="Rcommaaccent" horiz-adv-x="649" unicode="Ŗ"/><glyph d="M69 0v500h93v-63q38 73 146 71h18v-99l-13 -1q-151 4 -151 -146v-262h-93zM66 -289v56q54 2 51 58h-56v119h111l-1 -119q0 -57 -28 -85.5t-77 -28.5z" glyph-name="rcommaaccent" horiz-adv-x="332" unicode="ŗ"/><glyph d="M151 911h99l73 -100l74 100h99l-106 -157h-135zM79 -1v701l295 1q92 0 148.5 -54t56.5 -137q0 -62 -31.5 -108.5t-75.5 -61.5q47 -15 67.5 -54.5t26.5 -109.5q2 -22 3.5 -52t2.5 -42t4 -29t7 -28.5t11 -24.5h-112q-4 11 -7 21t-5 26t-2.5 26t-2 37t-2.5 41q-3 42 -8 65 t-18.5 45.5t-41.5 32t-74 9.5h-143v-304h-99zM178 389h174q57 0 93 29t36 84q0 57 -35 85t-94 28h-174v-226z" glyph-name="Rcaron" horiz-adv-x="649" unicode="Ř"/><glyph d="M-7 711h99l73 -100l74 100h99l-106 -157h-135zM69 0v500h93v-63q38 73 146 71h18v-99l-13 -1q-151 4 -151 -146v-262h-93z" glyph-name="rcaron" horiz-adv-x="332" unicode="ř"/><glyph d="M347 743h-97l102 131h123zM324 -7q-112 0 -194.5 58t-90.5 165h112q12 -61 57 -95t118 -34q66 0 104.5 33.5t38.5 79.5q0 45 -32 71t-108 35q-271 32 -271 200q0 83 70 141.5t175 58.5q119 0 189 -59t74 -163h-106q-4 59 -47.5 92t-109.5 33q-61 0 -97 -30t-36 -70 q0 -86 153 -106q141 -18 199.5 -69t58.5 -135q0 -93 -71.5 -149.5t-185.5 -56.5z" glyph-name="Sacute" horiz-adv-x="620" unicode="Ś"/><glyph d="M269 543h-97l102 131h123zM242 -11q-88 0 -148.5 44.5t-64.5 126.5h93q7 -42 39.5 -65.5t78.5 -23.5q44 0 69.5 22t25.5 55q0 27 -22 44.5t-77 25.5q-59 9 -99 25t-59 37.5t-26.5 41.5t-7.5 44q0 59 51 101t132 42q79 0 135 -42t62 -128h-90q-11 86 -105 86 q-36 0 -62 -16t-26 -44q0 -53 95 -66q109 -14 154 -51.5t45 -99.5q0 -71 -57.5 -115t-135.5 -44z" glyph-name="sacute" horiz-adv-x="464" unicode="ś"/><glyph d="M234 899h135l106 -157h-103l-70 100l-70 -100h-102zM324 -7q-112 0 -194.5 58t-90.5 165h112q12 -61 57 -95t118 -34q66 0 104.5 33.5t38.5 79.5q0 45 -32 71t-108 35q-271 32 -271 200q0 83 70 141.5t175 58.5q119 0 189 -59t74 -163h-106q-4 59 -47.5 92t-109.5 33 q-61 0 -97 -30t-36 -70q0 -86 153 -106q141 -18 199.5 -69t58.5 -135q0 -93 -71.5 -149.5t-185.5 -56.5z" glyph-name="Scircumflex" horiz-adv-x="620" unicode="Ŝ"/><glyph d="M156 699h135l106 -157h-103l-70 100l-70 -100h-102zM242 -11q-88 0 -148.5 44.5t-64.5 126.5h93q7 -42 39.5 -65.5t78.5 -23.5q44 0 69.5 22t25.5 55q0 27 -22 44.5t-77 25.5q-59 9 -99 25t-59 37.5t-26.5 41.5t-7.5 44q0 59 51 101t132 42q79 0 135 -42t62 -128h-90 q-11 86 -105 86q-36 0 -62 -16t-26 -44q0 -53 95 -66q109 -14 154 -51.5t45 -99.5q0 -71 -57.5 -115t-135.5 -44z" glyph-name="scircumflex" horiz-adv-x="464" unicode="ŝ"/><glyph d="M581 199q0 -92 -69 -148t-180 -58l-16 -29q16 4 38 2q37 -5 59.5 -30t22.5 -62q0 -45 -31 -76.5t-76 -31.5q-37 0 -70.5 21t-45.5 50l56 21q9 -14 26.5 -23t33.5 -9q19 0 32.5 14t13.5 34q0 34 -33 41q-23 7 -54 -8l-48 29l33 60q-95 13 -161 70t-73 150h112 q12 -61 57 -95t118 -34q66 0 104.5 33.5t38.5 79.5q0 45 -32 71t-108 35q-271 32 -271 200q0 83 70 141.5t175 58.5q119 0 189 -59t74 -163h-106q-4 59 -47.5 92t-109.5 33q-61 0 -97 -30t-36 -70q0 -86 153 -106q141 -18 199.5 -69t58.5 -135z" glyph-name="Scedilla" horiz-adv-x="620" unicode="Ş"/><glyph d="M435 148q0 -69 -54 -112.5t-129 -46.5l-13 -24q19 4 37 1q36 -4 59.5 -29.5t23.5 -62.5q0 -45 -31.5 -76t-76.5 -31q-36 0 -70 21t-46 50l57 21q8 -13 25.5 -23t33.5 -10q20 0 33.5 14t13.5 34q0 35 -33 42q-25 7 -54 -8l-48 28l30 57q-70 12 -115 54.5t-49 112.5h93 q7 -42 39.5 -65.5t78.5 -23.5q44 0 69.5 22t25.5 55q0 27 -22 44.5t-77 25.5q-59 9 -99 25t-59 37.5t-26.5 41.5t-7.5 44q0 59 51 101t132 42q79 0 135 -42t62 -128h-90q-11 86 -105 86q-36 0 -62 -16t-26 -44q0 -53 95 -66q109 -14 154 -51.5t45 -99.5z" glyph-name="scedilla" horiz-adv-x="464" unicode="ş"/><glyph d="M137 911h99l73 -100l74 100h99l-106 -157h-135zM324 -7q-112 0 -194.5 58t-90.5 165h112q12 -61 57 -95t118 -34q66 0 104.5 33.5t38.5 79.5q0 45 -32 71t-108 35q-271 32 -271 200q0 83 70 141.5t175 58.5q119 0 189 -59t74 -163h-106q-4 59 -47.5 92t-109.5 33 q-61 0 -97 -30t-36 -70q0 -86 153 -106q141 -18 199.5 -69t58.5 -135q0 -93 -71.5 -149.5t-185.5 -56.5z" glyph-name="Scaron" horiz-adv-x="620" unicode="Š"/><glyph d="M59 711h99l73 -100l74 100h99l-106 -157h-135zM242 -11q-88 0 -148.5 44.5t-64.5 126.5h93q7 -42 39.5 -65.5t78.5 -23.5q44 0 69.5 22t25.5 55q0 27 -22 44.5t-77 25.5q-59 9 -99 25t-59 37.5t-26.5 41.5t-7.5 44q0 59 51 101t132 42q79 0 135 -42t62 -128h-90 q-11 86 -105 86q-36 0 -62 -16t-26 -44q0 -53 95 -66q109 -14 154 -51.5t45 -99.5q0 -71 -57.5 -115t-135.5 -44z" glyph-name="scaron" horiz-adv-x="464" unicode="š"/><glyph d="M353 12q37 -5 59.5 -30t22.5 -62q0 -45 -31 -76.5t-76 -31.5q-37 0 -70.5 21t-45.5 50l56 21q9 -14 26.5 -23t33.5 -9q19 0 32.5 14t13.5 34q0 34 -33 41q-23 7 -54 -8l-48 29l10 18l1 607h-245l-1 93h586l1 -93l-244 1l-1 -596h7z" glyph-name="Tcommaaccent" horiz-adv-x="595" unicode="Ţ"/><glyph d="M205 0q-15 0 -29 3l-16 -30q24 3 38 1q36 -5 59 -30t23 -62q0 -45 -31 -76t-76 -31q-36 0 -70 20.5t-46 50.5l57 20q8 -13 25 -22.5t34 -9.5q20 0 33 14t13 34q0 34 -33 41q-23 7 -54 -8l-47 29l41 78q-55 37 -55 110v286h-77v82h77v156h95v-156h125v-82h-125v-265 q0 -38 13.5 -52.5t47.5 -14.5h65v-86h-87z" glyph-name="tcommaaccent" horiz-adv-x="310" unicode="ţ"/><glyph d="M124 911h99l73 -100l74 100h99l-106 -157h-135zM249 0l1 607h-245l-1 93h586l1 -93l-244 1l-1 -608h-97z" glyph-name="Tcaron" horiz-adv-x="595" unicode="Ť"/><glyph d="M-53 867h99l73 -100l74 100h99l-106 -157h-135zM205 0q-59 0 -96.5 36.5t-37.5 95.5v286h-77v82h77v156h95v-156h125v-82h-125v-265q0 -38 13.5 -52.5t47.5 -14.5h65v-86h-87z" glyph-name="tcaron" horiz-adv-x="306" unicode="ť"/><glyph d="M146 754v78h310v-78h-310zM249 0l1 607h-245l-1 93h586l1 -93l-244 1l-1 -608h-97z" glyph-name="Tbar" horiz-adv-x="595" unicode="Ŧ"/><glyph d="M308 275h-127v-122q0 -37 13.5 -52t47.5 -15h66l-1 -86h-87q-59 0 -96 36.5t-37 95.5v143h-74v78h74v65h-78v82h78v156h94v-156h125v-82h-125v-65h127v-78z" glyph-name="tbar" horiz-adv-x="322" unicode="ŧ"/><glyph d="M419 742q-59 0 -99 57q-13 22 -32 22q-27 0 -30 -35q0 -16 6 -35h-77q-3 15 -3 29q-2 51 26.5 83.5t74.5 32.5q61 0 99 -57q13 -22 32 -22q17 0 25 14.5t4 39.5q0 2 -1.5 7.5t-2.5 8.5h76q2 -8 2 -13q8 -57 -20 -94.5t-80 -37.5zM348 -8q-127 0 -203 75t-76 202v431h99 v-431q0 -87 49 -135.5t131 -48.5t131 48.5t49 135.5v431h99v-431q0 -127 -76 -202t-203 -75z" glyph-name="Utilde" horiz-adv-x="696" unicode="Ũ"/><glyph d="M351 542q-59 0 -99 57q-13 22 -32 22q-27 0 -30 -35q0 -16 6 -35h-77q-3 15 -3 29q-2 51 26.5 83.5t74.5 32.5q61 0 99 -57q13 -22 32 -22q17 0 25 14.5t4 39.5q0 2 -1.5 7.5t-2.5 8.5h76q2 -8 2 -13q8 -57 -20 -94.5t-80 -37.5zM252 -13q-32 0 -63 10.5t-60 32.5t-47 64 t-18 99v307h103v-297q0 -63 29 -96.5t77 -33.5q56 0 93.5 46t37.5 123v258h96v-500h-96v65q-19 -30 -58.5 -54t-93.5 -24z" glyph-name="utilde" unicode="ũ"/><glyph d="M201 754v78h310v-78h-310zM348 -8q-127 0 -203 75t-76 202v431h99v-431q0 -87 49 -135.5t131 -48.5t131 48.5t49 135.5v431h99v-431q0 -127 -76 -202t-203 -75z" glyph-name="Umacron" horiz-adv-x="696" unicode="Ū"/><glyph d="M132 554v78h310v-78h-310zM252 -13q-32 0 -63 10.5t-60 32.5t-47 64t-18 99v307h103v-297q0 -63 29 -96.5t77 -33.5q56 0 93.5 46t37.5 123v258h96v-500h-96v65q-19 -30 -58.5 -54t-93.5 -24z" glyph-name="umacron" unicode="ū"/><glyph d="M353 741q-81 0 -127 51t-48 125h79q2 -45 26.5 -75.5t69.5 -29.5q46 1 71 31.5t26 73.5h79q-2 -74 -48 -125t-128 -51zM348 -8q-127 0 -203 75t-76 202v431h99v-431q0 -87 49 -135.5t131 -48.5t131 48.5t49 135.5v431h99v-431q0 -127 -76 -202t-203 -75z" glyph-name="Ubreve" horiz-adv-x="696" unicode="Ŭ"/><glyph d="M284 541q-81 0 -127 51t-48 125h79q2 -45 26.5 -75.5t69.5 -29.5q46 1 71 31.5t26 73.5h79q-2 -74 -48 -125t-128 -51zM252 -13q-32 0 -63 10.5t-60 32.5t-47 64t-18 99v307h103v-297q0 -63 29 -96.5t77 -33.5q56 0 93.5 46t37.5 123v258h96v-500h-96v65 q-19 -30 -58.5 -54t-93.5 -24z" glyph-name="ubreve" unicode="ŭ"/><glyph d="M353 741q-39 0 -66 27.5t-27 65.5t27 65.5t66 27.5q37 0 64 -27.5t28 -65.5q0 -38 -27.5 -65.5t-64.5 -27.5zM353 794q18 0 29 10.5t11 29.5t-11 30.5t-29 11.5q-19 0 -30 -11.5t-11 -30.5t11 -29.5t30 -10.5zM348 -8q-127 0 -203 75t-76 202v431h99v-431 q0 -87 49 -135.5t131 -48.5t131 48.5t49 135.5v431h99v-431q0 -127 -76 -202t-203 -75z" glyph-name="Uring" horiz-adv-x="696" unicode="Ů"/><glyph d="M285 541q-39 0 -66 27.5t-27 65.5t27 65.5t66 27.5q37 0 64 -27.5t28 -65.5q0 -38 -27.5 -65.5t-64.5 -27.5zM285 594q18 0 29 10.5t11 29.5t-11 30.5t-29 11.5q-19 0 -30 -11.5t-11 -30.5t11 -29.5t30 -10.5zM252 -13q-32 0 -63 10.5t-60 32.5t-47 64t-18 99v307h103 v-297q0 -63 29 -96.5t77 -33.5q56 0 93.5 46t37.5 123v258h96v-500h-96v65q-19 -30 -58.5 -54t-93.5 -24z" glyph-name="uring" unicode="ů"/><glyph d="M201 759v119h111v-119h-111zM387 759v119h112v-119h-112zM348 -8q-127 0 -203 75t-76 202v431h99v-431q0 -87 49 -135.5t131 -48.5t131 48.5t49 135.5v431h99v-431q0 -127 -76 -202t-203 -75z" glyph-name="Uhungarumlaut" horiz-adv-x="696" unicode="Ű"/><glyph d="M133 559v119h111v-119h-111zM319 559v119h112v-119h-112zM252 -13q-32 0 -63 10.5t-60 32.5t-47 64t-18 99v307h103v-297q0 -63 29 -96.5t77 -33.5q56 0 93.5 46t37.5 123v258h96v-500h-96v65q-19 -30 -58.5 -54t-93.5 -24z" glyph-name="uhungarumlaut" unicode="ű"/><glyph d="M528 700h99v-431q0 -118 -66 -191.5t-179 -83.5q-43 -17 -68.5 -53.5t-25.5 -72.5q0 -26 16 -42.5t44 -16.5q26 0 51 14.5t40 36.5l42 -57q-62 -63 -154 -58q-57 3 -92 31.5t-35 80.5q0 87 99 138q-106 14 -168 87t-62 187v431h99v-431q0 -87 49 -135.5t131 -48.5 t131 48.5t49 135.5v431z" glyph-name="Uogonek" horiz-adv-x="696" unicode="Ų"/><glyph d="M506 -144l42 -57q-62 -63 -154 -58q-57 3 -92 31.5t-35 80.5q0 49 35 89.5t102 65.5v57q-19 -30 -58.5 -54t-93.5 -24q-32 0 -63 10.5t-60 32.5t-47 64t-18 99v307h103v-297q0 -63 29 -96.5t77 -33.5q56 0 93.5 46t37.5 123v258h96v-500h-2q-62 -4 -102.5 -46.5 t-40.5 -89.5q0 -26 16 -42.5t44 -16.5q26 0 51 14.5t40 36.5z" glyph-name="uogonek" unicode="ų"/><glyph d="M397 899h135l106 -157h-103l-70 100l-70 -100h-102zM226 0l-207 700h101l156 -559l151 559h94l158 -560l147 560h101l-200 -700h-97l-156 548l-150 -548h-98z" glyph-name="Wcircumflex" horiz-adv-x="946" unicode="Ŵ"/><glyph d="M293 699h135l106 -157h-103l-70 100l-70 -100h-102zM171 0l-162 500h104l108 -371l107 371h80l108 -371l106 371h106l-163 -500h-99l-97 333l-98 -333h-100z" glyph-name="wcircumflex" horiz-adv-x="737" unicode="ŵ"/><glyph d="M244 899h135l106 -157h-103l-70 100l-70 -100h-102zM271 0v284l-257 416h109l197 -326l205 326h101l-257 -416v-284h-98z" glyph-name="Ycircumflex" horiz-adv-x="640" unicode="Ŷ"/><glyph d="M169 699h135l106 -157h-103l-70 100l-70 -100h-102zM38 -200l-1 88h45q63 0 91 71l26 72l-195 469h105l140 -353l132 353h105l-220 -565q-54 -135 -175 -135h-53z" glyph-name="ycircumflex" horiz-adv-x="490" unicode="ŷ"/><glyph d="M169 756v119h111v-119h-111zM355 756v119h112v-119h-112zM271 0v284l-257 416h109l197 -326l205 326h101l-257 -416v-284h-98z" glyph-name="Ydieresis" horiz-adv-x="640" unicode="Ÿ"/><glyph d="M359 743h-97l102 131h123zM44 0v98l443 504h-437v98h559v-98l-437 -504h431v-98h-559z" glyph-name="Zacute" horiz-adv-x="643" unicode="Ź"/><glyph d="M282 543h-97l102 131h123zM34 0v89l287 323h-287v89l404 -1v-88l-286 -323h286v-89h-404z" glyph-name="zacute" horiz-adv-x="482" unicode="ź"/><glyph d="M264 759v119h111v-119h-111zM44 0v98l443 504h-437v98h559v-98l-437 -504h431v-98h-559z" glyph-name="Zdotaccent" horiz-adv-x="643" unicode="Ż"/><glyph d="M188 559v119h111v-119h-111zM34 0v89l287 323h-287v89l404 -1v-88l-286 -323h286v-89h-404z" glyph-name="zdotaccent" horiz-adv-x="482" unicode="ż"/><glyph d="M149 911h99l73 -100l74 100h99l-106 -157h-135zM44 0v98l443 504h-437v98h559v-98l-437 -504h431v-98h-559z" glyph-name="Zcaron" horiz-adv-x="643" unicode="Ž"/><glyph d="M72 711h99l73 -100l74 100h99l-106 -157h-135zM34 0v89l287 323h-287v89l404 -1v-88l-286 -323h286v-89h-404z" glyph-name="zcaron" horiz-adv-x="482" unicode="ž"/><glyph d="M257 711q108 0 173 -69t65 -188q0 -116 -65 -188t-171 -72q-110 0 -171 81t-53 206h360v1q0 67 -37.5 106t-101.5 39q-37 0 -72.5 -20.5t-50.5 -65.5h-90q11 75 69 122.5t145 47.5zM392 396h-255q3 -53 36.5 -85.5t88.5 -32.5t90 33t40 85z" glyph-name="uni018F" horiz-adv-x="529" unicode="Ə"/><glyph d="M324 -7q-112 0 -194.5 58t-90.5 165h112q12 -61 57 -95t118 -34q66 0 104.5 33.5t38.5 79.5q0 45 -32 71t-108 35q-271 32 -271 200q0 83 70 141.5t175 58.5q119 0 189 -59t74 -163h-106q-4 59 -47.5 92t-109.5 33q-61 0 -97 -30t-36 -70q0 -86 153 -106 q141 -18 199.5 -69t58.5 -135q0 -93 -71.5 -149.5t-185.5 -56.5zM260 -289v56q54 2 51 58h-56v119h111l-1 -119q0 -57 -28 -85.5t-77 -28.5z" glyph-name="Scommaaccent" horiz-adv-x="620" unicode="Ș"/><glyph d="M242 -11q-88 0 -148.5 44.5t-64.5 126.5h93q7 -42 39.5 -65.5t78.5 -23.5q44 0 69.5 22t25.5 55q0 27 -22 44.5t-77 25.5q-59 9 -99 25t-59 37.5t-26.5 41.5t-7.5 44q0 59 51 101t132 42q79 0 135 -42t62 -128h-90q-11 86 -105 86q-36 0 -62 -16t-26 -44q0 -53 95 -66 q109 -14 154 -51.5t45 -99.5q0 -71 -57.5 -115t-135.5 -44zM182 -289v56q54 2 51 58h-56v119h111l-1 -119q0 -57 -28 -85.5t-77 -28.5z" glyph-name="scommaaccent" horiz-adv-x="464" unicode="ș"/><glyph d="M249 0l1 607h-245l-1 93h586l1 -93l-244 1l-1 -608h-97zM247 -289v56q54 2 51 58h-56v119h111l-1 -119q0 -57 -28 -85.5t-77 -28.5z" glyph-name="uni021A" horiz-adv-x="595" unicode="Ț"/><glyph d="M205 0q-59 0 -96.5 36.5t-37.5 95.5v286h-77v82h77v156h95v-156h125v-82h-125v-265q0 -38 13.5 -52.5t47.5 -14.5h65v-86h-87zM133 -289v56q54 2 51 58h-56v119h111l-1 -119q0 -57 -28 -85.5t-77 -28.5z" glyph-name="uni021B" horiz-adv-x="306" unicode="ț"/><glyph d="M168 754v78h310v-78h-310zM271 0v284l-257 416h109l197 -326l205 326h101l-257 -416v-284h-98z" glyph-name="uni0232" horiz-adv-x="640" unicode="Ȳ"/><glyph d="M93 554v78h310v-78h-310zM38 -200l-1 88h45q63 0 91 71l26 72l-195 469h105l140 -353l132 353h105l-220 -565q-54 -135 -175 -135h-53z" glyph-name="uni0233" horiz-adv-x="490" unicode="ȳ"/><glyph d="M-16 -177v92h22q32 0 51 19t19 58v508h96v-524q0 -71 -42 -112t-109 -41h-37z" glyph-name="uni0237" horiz-adv-x="231" unicode="ȷ"/><glyph d="M122 736h135l106 -157h-103l-70 100l-70 -100h-102z" glyph-name="circumflex" horiz-adv-x="53" unicode="ˆ"/><glyph d="M18 736h99l73 -100l74 100h99l-106 -157h-135z" glyph-name="caron" horiz-adv-x="53" unicode="ˇ"/><glyph d="M287 559q-81 0 -127 51t-48 125h79q2 -45 26.5 -75.5t69.5 -29.5q46 1 71 31.5t26 73.5h79q-2 -74 -48 -125t-128 -51z" glyph-name="breve" horiz-adv-x="53" unicode="˘"/><glyph d="M96 585v119h111v-119h-111z" glyph-name="dotaccent" horiz-adv-x="53" unicode="˙"/><glyph d="M85 560q-39 0 -66 27.5t-27 65.5t27 65.5t66 27.5q37 0 64 -27.5t28 -65.5q0 -38 -27.5 -65.5t-64.5 -27.5zM85 613q18 0 29 10.5t11 29.5t-11 30.5t-29 11.5q-19 0 -30 -11.5t-11 -30.5t11 -29.5t30 -10.5z" glyph-name="ring" horiz-adv-x="53" unicode="˚"/><glyph d="M125 -259q-57 3 -92 31.5t-35 80.5q0 55 43.5 98.5t126.5 67.5l61 -19q-62 -4 -102.5 -46.5t-40.5 -89.5q0 -26 16 -42.5t44 -16.5q26 0 51 14.5t40 36.5l42 -57q-62 -63 -154 -58z" glyph-name="ogonek" horiz-adv-x="53" unicode="˛"/><glyph d="M-143 602q-59 0 -99 57q-13 22 -32 22q-27 0 -30 -35q0 -16 6 -35h-77q-3 15 -3 29q-2 51 26.5 83.5t74.5 32.5q61 0 99 -57q13 -22 32 -22q17 0 25 14.5t4 39.5q0 2 -1.5 7.5t-2.5 8.5h76q2 -8 2 -13q8 -57 -20 -94.5t-80 -37.5z" glyph-name="tilde" horiz-adv-x="0" unicode="˜"/><glyph d="M67 593v119h111v-119h-111zM253 593v119h112v-119h-112z" glyph-name="hungarumlaut" horiz-adv-x="53" unicode="˝"/><glyph d="M-131 580l-129 131h123l102 -131h-96z" glyph-name="gravecomb" horiz-adv-x="0" unicode="̀"/><glyph d="M-443 580h-97l102 131h123z" glyph-name="acutecomb" horiz-adv-x="0" unicode="́"/><glyph d="M-143 602q-59 0 -99 57q-13 22 -32 22q-27 0 -30 -35q0 -16 6 -35h-77q-3 15 -3 29q-2 51 26.5 83.5t74.5 32.5q61 0 99 -57q13 -22 32 -22q17 0 25 14.5t4 39.5q0 2 -1.5 7.5t-2.5 8.5h76q2 -8 2 -13q8 -57 -20 -94.5t-80 -37.5z" glyph-name="tildecomb" horiz-adv-x="0" unicode="̃"/><glyph d="M-141 -254v119h111v-119h-111z" glyph-name="dotbelowcomb" horiz-adv-x="0" unicode="̣"/><glyph d="M-358 -289v56q54 2 51 58h-56v119h111l-1 -119q0 -57 -28 -85.5t-77 -28.5z" glyph-name="uni0326" horiz-adv-x="0" unicode="̦"/><glyph d="M432 744l-129 131h123l102 -131h-96zM226 0l-207 700h101l156 -559l151 559h94l158 -560l147 560h101l-200 -700h-97l-156 548l-150 -548h-98z" glyph-name="Wgrave" horiz-adv-x="946" unicode="Ẁ"/><glyph d="M328 544l-129 131h123l102 -131h-96zM171 0l-162 500h104l108 -371l107 371h80l108 -371l106 371h106l-163 -500h-99l-97 333l-98 -333h-100z" glyph-name="wgrave" horiz-adv-x="737" unicode="ẁ"/><glyph d="M510 743h-97l102 131h123zM226 0l-207 700h101l156 -559l151 559h94l158 -560l147 560h101l-200 -700h-97l-156 548l-150 -548h-98z" glyph-name="Wacute" horiz-adv-x="946" unicode="Ẃ"/><glyph d="M405 543h-97l102 131h123zM171 0l-162 500h104l108 -371l107 371h80l108 -371l106 371h106l-163 -500h-99l-97 333l-98 -333h-100z" glyph-name="wacute" horiz-adv-x="737" unicode="ẃ"/><glyph d="M322 756v119h111v-119h-111zM508 756v119h112v-119h-112zM226 0l-207 700h101l156 -559l151 559h94l158 -560l147 560h101l-200 -700h-97l-156 548l-150 -548h-98z" glyph-name="Wdieresis" horiz-adv-x="946" unicode="Ẅ"/><glyph d="M218 556v119h111v-119h-111zM404 556v119h112v-119h-112zM171 0l-162 500h104l108 -371l107 371h80l108 -371l106 371h106l-163 -500h-99l-97 333l-98 -333h-100z" glyph-name="wdieresis" horiz-adv-x="737" unicode="ẅ"/><glyph d="M84 0v700h103v-700h-103zM81 -169v119h111v-119h-111z" glyph-name="uni1ECA" horiz-adv-x="271" unicode="Ị"/><glyph d="M81 0v500h100v-500h-100zM76 -179v120h111v-120h-111z" glyph-name="uni1ECB" horiz-adv-x="251" unicode="ị"/><glyph d="M374 -10q-140 0 -235 102.5t-95 257.5t94.5 256.5t235.5 101.5q140 0 235 -102t95 -258q0 -154 -95 -256t-235 -102zM373 87q100 0 164 73t64 185q0 116 -63.5 192t-163.5 76q-99 0 -162 -75.5t-63 -190.5q0 -112 63 -186t161 -74zM319 -169v119h111v-119h-111z" glyph-name="uni1ECC" horiz-adv-x="748" unicode="Ọ"/><glyph d="M274 -5q-103 0 -171.5 72t-68.5 183q0 112 68.5 184.5t171.5 72.5t171 -72t68 -185q0 -111 -68.5 -183t-170.5 -72zM273 85q67 0 106 46t39 118q0 74 -38.5 121t-105.5 47q-66 0 -104.5 -47t-38.5 -120q0 -72 38.5 -118.5t103.5 -46.5zM219 -169v119h111v-119h-111z" glyph-name="uni1ECD" horiz-adv-x="547" unicode="ọ"/><glyph d="M348 -8q-127 0 -203 75t-76 202v431h99v-431q0 -87 49 -135.5t131 -48.5t131 48.5t49 135.5v431h99v-431q0 -127 -76 -202t-203 -75zM293 -169v119h111v-119h-111z" glyph-name="uni1EE4" horiz-adv-x="696" unicode="Ụ"/><glyph d="M252 -13q-32 0 -63 10.5t-60 32.5t-47 64t-18 99v307h103v-297q0 -63 29 -96.5t77 -33.5q56 0 93.5 46t37.5 123v258h96v-500h-96v65q-19 -30 -58.5 -54t-93.5 -24zM229 -169v119h111v-119h-111z" glyph-name="uni1EE5" unicode="ụ"/><glyph d="M280 744l-129 131h123l102 -131h-96zM271 0v284l-257 416h109l197 -326l205 326h101l-257 -416v-284h-98z" glyph-name="Ygrave" horiz-adv-x="640" unicode="Ỳ"/><glyph d="M205 544l-129 131h123l102 -131h-96zM38 -200l-1 88h45q63 0 91 71l26 72l-195 469h105l140 -353l132 353h105l-220 -565q-54 -135 -175 -135h-53z" glyph-name="ygrave" horiz-adv-x="490" unicode="ỳ"/><glyph d="M94 220v70h500v-70h-500z" glyph-name="endash" horiz-adv-x="687" unicode="–"/><glyph d="M10 220v70h1000v-70h-1000z" glyph-name="emdash" horiz-adv-x="1019" unicode="—"/><glyph d="M29 565l1 119q0 57 28 85.5t77 28.5v-56q-54 -2 -51 -58h56v-119h-111z" glyph-name="quoteleft" horiz-adv-x="165" unicode="‘"/><glyph d="M32 564v57q52 2 51 57h-57v120h112l-1 -120q-1 -58 -28.5 -86t-76.5 -28z" glyph-name="quoteright" horiz-adv-x="132" unicode="’"/><glyph d="M47 -114v56q52 2 51 58h-57v119h112l-1 -119q-1 -58 -28.5 -86t-76.5 -28z" glyph-name="quotesinglbase" horiz-adv-x="239" unicode="‚"/><glyph d="M14 565l1 119q1 58 28.5 86t76.5 28v-56q-52 -1 -51 -58h57v-119h-112zM170 565l1 119q0 57 28 85.5t77 28.5v-56q-54 -2 -51 -58h56v-119h-111z" glyph-name="quotedblleft" horiz-adv-x="293" unicode="“"/><glyph d="M9 564v56q54 2 51 58h-56v119h111l-1 -119q0 -57 -28 -85.5t-77 -28.5zM167 564v56q52 1 51 58h-57v119h112l-1 -119q-1 -58 -28.5 -86t-76.5 -28z" glyph-name="quotedblright" horiz-adv-x="288" unicode="”"/><glyph d="M50 -114v56q52 1 51 58h-57v119h112l-1 -119q-1 -58 -28.5 -86t-76.5 -28zM208 -114v56q52 2 51 58h-57v119h112l-1 -119q-1 -58 -28.5 -86t-76.5 -28z" glyph-name="quotedblbase" horiz-adv-x="388" unicode="„"/><glyph d="M182 231v216h201v-216h-201z" glyph-name="bullet" horiz-adv-x="600" unicode="•"/><glyph d="M71 0v119h111v-119h-111zM318 0v119h112v-119h-112zM566 0v119h111v-119h-111z" glyph-name="ellipsis" horiz-adv-x="747" unicode="…"/><glyph d="M53 0l516 750h99l-516 -750h-99zM199 474q-54 0 -92 39.5t-38 95.5t38 95.5t92 39.5t92 -39.5t38 -95.5t-38 -95.5t-92 -39.5zM199 545q23 0 39.5 18.5t16.5 44.5t-16.5 44t-39.5 18t-39 -18t-16 -44t16 -44.5t39 -18.5zM832 0q-54 0 -92 39.5t-38 95.5t38 95.5t92 39.5 t92 -39.5t38 -95.5t-38 -95.5t-92 -39.5zM528 -2q-54 0 -92 39.5t-38 95.5t38 95.5t92 39.5t92 -39.5t38 -95.5t-38 -95.5t-92 -39.5zM832 71q23 0 39.5 18.5t16.5 44.5t-16.5 44t-39.5 18t-39.5 -18t-16.5 -44t16.5 -44.5t39.5 -18.5zM528 69q23 0 39.5 18.5t16.5 44.5 t-16.5 44t-39.5 18t-39 -18t-16 -44t16 -44.5t39 -18.5z" glyph-name="perthousand" horiz-adv-x="1026" unicode="‰"/><glyph d="M207 95l-152 184l152 184h90l-152 -184l152 -184h-90z" glyph-name="guilsinglleft" horiz-adv-x="339" unicode="‹"/><glyph d="M59 95l152 184l-152 184h90l152 -184l-152 -184h-90z" glyph-name="guilsinglright" horiz-adv-x="339" unicode="›"/><glyph d="M354 63q71 -1 113 43t50 127h94q-9 -115 -76.5 -184.5t-175.5 -68.5q-107 1 -180 67.5t-89 198.5h-67v85h63v49h-63v78h67q16 132 89 198.5t180 67.5q108 1 175 -68t75 -182h-94q-4 81 -47 123.5t-115 41.5q-68 0 -111.5 -49t-50.5 -132h204v-78h-208v-49h208v-85h-204 q7 -84 51 -133t112 -50z" glyph-name="Euro" horiz-adv-x="644" unicode="€"/><glyph d="M206 458v205h-92v37h222v-37l-91 1l-1 -206h-38zM371 459v240h48l85 -188l82 188h46v-240h-38v168l-73 -168h-36l-76 169l1 -169h-39z" glyph-name="trademark" horiz-adv-x="751" unicode="™"/><glyph d="M458 -9q-177 0 -302 112.5t-125 270.5q0 160 125 273t302 113q178 0 303 -113t125 -273v-10h-692q-6 0 -6 -4v-210q0 -11 9 -24q111 -114 262 -114q81 0 153 34t123 94h61q-58 -69 -147 -109t-191 -40zM194 385h531q4 0 4 7v210q0 16 -10 25q-112 110 -260 110t-261 -113 q-10 -12 -10 -26v-206q0 -7 6 -7z" glyph-name="estimated" horiz-adv-x="918" unicode="℮"/><glyph d="M64 248v79h600v-79h-600z" glyph-name="minus" horiz-adv-x="727" unicode="−"/><glyph d="M664 320h-209l-93 -109h302v-78h-368l-113 -132h-82l113 132h-150v78h216l93 109h-309v78h376l87 103h82l-87 -103h142v-78z" glyph-name="notequal" horiz-adv-x="727" unicode="≠"/><glyph d="M653 88l-552 277v61l552 274v-84l-458 -221l458 -222v-85zM545 25v-44h-337v44h337z" glyph-name="lessequal" horiz-adv-x="799" unicode="≤"/><glyph d="M100 88v85l457 222l-457 221v84l552 -274v-61zM98 25l447 8l110 -52l-447 -8z" glyph-name="greaterequal" horiz-adv-x="751" unicode="≥"/><glyph d="M585 293v-77h-69v-216h-92v73q-16 -31 -60 -57.5t-102 -26.5q-83 0 -150 61t-77 166h-39v77h41q13 99 76.5 155.5t145.5 56.5q111 0 165 -81v276h92v-407h69zM278 417q-53 0 -90 -34t-48 -90h279q-12 56 -50 90t-91 34zM278 79q58 0 97 38t47 99h-283q9 -62 47 -99.5 t92 -37.5z" glyph-name="glyph354" horiz-adv-x="550"/><glyph d="M40 -1v701l293 1q91 0 148 -60t57 -152q0 -73 -39 -126.5t-106 -72.5l169 -290h-107l-163 281h-155v-282h-97zM137 367h174q57 0 93.5 32.5t36.5 90.5q0 59 -36.5 92t-93.5 33h-173z" glyph-name="glyph355" horiz-adv-x="584"/><glyph d="M271 -11q-98 0 -161 73t-63 185q0 113 62 185.5t159 72.5q103 0 161 -74v69h95v-500h-95v70q-52 -81 -158 -81zM285 73q64 0 104.5 47t40.5 123q0 79 -40.5 128t-104.5 49q-62 0 -101.5 -48t-39.5 -125t39.5 -125.5t101.5 -48.5z" glyph-name="glyph356" horiz-adv-x="575"/><glyph d="M141 0q-67 0 -109 41t-42 112l4 547h96l-4 -531q-1 -39 18.5 -58t51.5 -19h23v-92h-38z" glyph-name="glyph357" horiz-adv-x="223"/></font>
</defs>
</svg>
