<?xml version="1.0" standalone="no"?>
<!DOCTYPE svg PUBLIC "-//W3C//DTD SVG 1.1//EN" "http://www.w3.org/Graphics/SVG/1.1/DTD/svg11.dtd">
<svg xmlns="http://www.w3.org/2000/svg"><metadata>This SVG WebFont was generated by YouWorkForThem.
Copyright Â© 2017 by Samuel Oakes. All rights reserved.</metadata><defs><font horiz-adv-x="566" id="ywftsvg"><font-face ascent="800" bbox="-374 -467 1076 932" cap-height="700" descent="-200" font-family="" font-stretch="normal" font-weight="400" panose-1="0 0 5 0 0 0 0 0 0 0" underline-position="0" underline-thickness="0" unicode-range="U+0020-2265" units-per-em="1000" x-height="500"/><missing-glyph horiz-adv-x="600"/><glyph glyph-name=".notdef" horiz-adv-x="600"/><glyph glyph-name="glyph1" horiz-adv-x="600"/><glyph glyph-name="glyph2" horiz-adv-x="333"/><glyph glyph-name="space" horiz-adv-x="280" unicode=" "/><glyph d="M58 206l-10 544h83l-10 -544h-63zM44 0v102h96v-102h-96z" glyph-name="exclam" horiz-adv-x="233" unicode="!"/><glyph d="M50 608l-29 81v102h97v-102l-29 -81h-39zM214 608l-29 81v102h96v-102l-29 -81h-38z" glyph-name="quotedbl" horiz-adv-x="322" unicode="&quot;"/><glyph d="M178 0l24 170h-135l7 67h137l33 224h-135l8 66h135l25 175h66l-24 -175h179l24 175h66l-24 -175h125l-8 -66h-125l-33 -224h124l-7 -67h-126l-26 -170h-65l24 170h-180l-23 -170h-66zM277 237h179l34 224h-181z" glyph-name="numbersign" horiz-adv-x="750" unicode="#"/><glyph d="M318 -57v52q-101 10 -170.5 67t-76.5 155h88q11 -71 63 -110.5t136 -39.5q76 0 119 36t43 93q0 52 -37 80.5t-126 42.5q-141 20 -204 69t-63 128q0 77 63 132t156 58v50h75v-54q95 -15 150 -72t56 -145h-82q-4 71 -51.5 109t-128.5 38q-67 0 -109.5 -33.5t-42.5 -81.5 q0 -93 175 -121q141 -21 197.5 -68.5t56.5 -132.5q0 -83 -57.5 -136t-154.5 -63v-53h-75z" glyph-name="dollar" horiz-adv-x="643" unicode="$"/><glyph d="M195 466q-54 0 -92 42t-38 101t38 101t92 42t92 -42t38 -101t-38 -101t-92 -42zM61 0l516 750h79l-516 -750h-79zM195 528q27 0 47 24t20 57t-20 56.5t-47 23.5t-46.5 -23t-19.5 -57t19.5 -57.5t46.5 -23.5zM531 -6q-54 0 -92 42t-38 102q0 59 38 101t92 42t92 -42 t38 -101q0 -60 -38 -102t-92 -42zM531 56q27 0 46.5 23.5t19.5 57.5t-19.5 57t-46.5 23q-28 0 -47.5 -23t-19.5 -57t19.5 -57.5t47.5 -23.5z" glyph-name="percent" horiz-adv-x="723" unicode="%"/><glyph d="M292 -14q-94 0 -158 54t-64 137q0 126 131 206q-79 90 -79 164q0 69 50 117t123 48q70 0 118.5 -45.5t48.5 -113.5q0 -57 -41 -107.5t-102 -77.5l161 -160l45 79h91l-78 -136l152 -151h-105l-88 89q-79 -103 -205 -103zM267 422q52 21 86.5 57t34.5 74q0 37 -27 63.5 t-66 26.5q-40 0 -68 -26.5t-28 -62.5q0 -64 68 -132zM290 62q88 0 150 83l-188 184q-106 -59 -106 -143q0 -54 42 -89t102 -35z" glyph-name="ampersand" horiz-adv-x="743" unicode="&amp;"/><glyph d="M38 608l-29 81v102h97v-102l-29 -81h-39z" glyph-name="quotesingle" horiz-adv-x="112" unicode="'"/><glyph d="M245 -224q-75 96 -121 231t-46 285t45 285.5t122 212.5h70q-82 -92 -126 -223.5t-44 -274.5q0 -142 47 -275.5t120 -240.5h-67z" glyph-name="parenleft" horiz-adv-x="310" unicode="("/><glyph d="M27 -224q73 107 120 240.5t47 275.5q0 143 -44 274.5t-126 223.5h70q77 -77 122 -212.5t45 -285.5t-46 -285t-121 -231h-67z" glyph-name="parenright" horiz-adv-x="330" unicode=")"/><glyph d="M106 505l-45 27l54 76l-93 -9v54l93 -9l-54 75l45 27l40 -84l39 84l46 -27l-55 -75l94 9v-54l-94 9l55 -76l-46 -27l-39 85z" glyph-name="asterisk" horiz-adv-x="287" unicode="*"/><glyph d="M375 29v227h-207v60h207v226h58v-226h207v-60h-207v-227h-58z" glyph-name="plus" horiz-adv-x="807" unicode="+"/><glyph d="M18 -102v47q49 2 46 55h-50v102h96v-102q0 -50 -25 -76t-67 -26z" glyph-name="comma" horiz-adv-x="142" unicode=","/><glyph d="M94 295v58h350v-58h-350z" glyph-name="hyphen" horiz-adv-x="537" unicode="-"/><glyph d="M30 0v102h96v-102h-96z" glyph-name="period" horiz-adv-x="168" unicode="."/><glyph d="M72 -200l440 950h74l-439 -950h-75z" glyph-name="slash" horiz-adv-x="576" unicode="/"/><glyph d="M313 -10q-119 0 -190 97.5t-71 258.5q0 162 71.5 260t191.5 98t191 -98t71 -260q0 -161 -72 -258.5t-192 -97.5zM315 61q85 0 135 77t50 207q0 131 -50.5 209.5t-137.5 78.5q-84 0 -133.5 -77t-49.5 -207q0 -132 50 -210t136 -78z" glyph-name="zero" horiz-adv-x="629" unicode="0"/><glyph d="M483 0h-398v67h168v538l-162 -123v78l172 133h63v-626h157v-67z" glyph-name="one" horiz-adv-x="551" unicode="1"/><glyph d="M47 0v76l213 191q92 81 127.5 127t35.5 99q0 64 -40.5 103t-106.5 39t-109 -40t-49 -108h-79q6 97 72 158t165 61q97 0 159.5 -60t62.5 -150q0 -70 -38.5 -124.5t-127.5 -135.5l-179 -163l357 1v-74h-463z" glyph-name="two" horiz-adv-x="548" unicode="2"/><glyph d="M376 367q58 -19 99 -62t41 -115q-1 -84 -65 -141.5t-168 -57.5q-107 0 -174.5 62.5t-70.5 161.5h78q1 -67 47 -109.5t118 -42.5t115 38t43 92q0 59 -50.5 95.5t-133.5 36.5h-28v71h25q75 0 121 34.5t46 90.5q0 50 -40 82t-103 32q-67 0 -107 -39.5t-45 -107.5h-76 q5 101 67.5 160.5t165.5 59.5q94 0 154.5 -50t60.5 -128q0 -58 -35.5 -101.5t-84.5 -61.5z" glyph-name="three" horiz-adv-x="554" unicode="3"/><glyph d="M441 0h-75v149h-342v67l325 484h92v-481h109v-72h-109v-147zM366 608l-262 -389h262v389z" glyph-name="four" horiz-adv-x="573" unicode="4"/><glyph d="M290 466q97 0 161.5 -65t64.5 -167q0 -101 -67 -169t-171 -68q-100 0 -168 63t-65 159h74q1 -69 45.5 -109.5t115.5 -40.5t115.5 47.5t45.5 115.5q1 71 -45.5 119t-116.5 48q-78 0 -133 -59h-79l58 360h341v-71h-283l-35 -213q62 50 142 50z" glyph-name="five" horiz-adv-x="560" unicode="5"/><glyph d="M291 -6q-114 -1 -185.5 90t-71.5 261q0 100 22 173.5t60.5 113t82 57.5t93.5 18q93 -1 152.5 -52t70.5 -130h-74q-13 57 -55 85.5t-99 26.5q-86 -3 -131.5 -72t-46.5 -200l-1 -30q28 57 80 87t115 30q95 0 158 -62.5t63 -162.5q0 -106 -67 -169.5t-166 -63.5zM293 64 q67 0 108.5 46.5t41.5 115.5q0 65 -43 108t-108 43t-109.5 -45.5t-44.5 -112.5q0 -62 44 -108.5t111 -46.5z" glyph-name="six" horiz-adv-x="559" unicode="6"/><glyph d="M205 0h-81l303 631h-396v69h476v-68z" glyph-name="seven" horiz-adv-x="538" unicode="7"/><glyph d="M277 -8q-105 0 -168.5 58t-63.5 142q0 66 35.5 113t96.5 68q-52 18 -83.5 61.5t-31.5 95.5q0 75 59.5 125.5t153.5 50.5q95 0 156 -50.5t61 -125.5q0 -54 -34 -97t-83 -60q63 -20 98.5 -68t35.5 -114q0 -83 -64 -141t-168 -58zM276 413q60 0 99 32t39 82q0 46 -39.5 79 t-99.5 33q-59 0 -97.5 -33t-38.5 -79q0 -50 38.5 -82t98.5 -32zM276 61q67 0 110.5 39t43.5 95q0 59 -44 97.5t-111 38.5t-109.5 -38.5t-42.5 -97.5q0 -57 43 -95.5t110 -38.5z" glyph-name="eight" horiz-adv-x="554" unicode="8"/><glyph d="M267 707q114 0 185.5 -90.5t71.5 -261.5q0 -100 -22 -173t-60 -112.5t-82 -57.5t-94 -18q-92 0 -151.5 51.5t-70.5 130.5h73q13 -56 55.5 -85.5t98.5 -27.5q174 8 179 273v29q-28 -57 -80 -86.5t-114 -29.5q-95 0 -158.5 62.5t-63.5 162.5q0 105 67 168.5t166 64.5z M266 636q-68 0 -109.5 -46.5t-41.5 -114.5q0 -66 43 -108.5t108 -42.5q66 0 110.5 45.5t44.5 111.5q0 62 -44.5 108.5t-110.5 46.5z" glyph-name="nine" horiz-adv-x="559" unicode="9"/><glyph d="M41 398v103h97v-103h-97zM42 0v102h96v-102h-96z" glyph-name="colon" horiz-adv-x="235" unicode=":"/><glyph d="M92 398v102h96l1 -102h-97zM96 -102v47q49 2 46 55h-50v102h96v-102q0 -50 -25 -76t-67 -26z" glyph-name="semicolon" horiz-adv-x="295" unicode=";"/><glyph d="M646 26l-552 279v61l552 277v-68l-483 -240l483 -239v-70z" glyph-name="less" horiz-adv-x="739" unicode="&lt;"/><glyph d="M64 328v62h600v-62h-600zM64 141v62h600v-62h-600z" glyph-name="equal" horiz-adv-x="727" unicode="="/><glyph d="M94 26v70l483 239l-483 240v68l552 -277v-61z" glyph-name="greater" horiz-adv-x="739" unicode=">"/><glyph d="M196 179v52q0 55 18.5 97t45 67t53.5 47t45.5 49.5t18.5 61.5q0 56 -42 93t-99 37q-54 0 -96.5 -36t-46.5 -96h-70q1 84 63.5 141t148.5 57q90 0 151.5 -58t61.5 -138q0 -41 -18.5 -75t-45 -58t-52.5 -48t-44.5 -57.5t-18.5 -74.5v-61h-73zM185 0v102h97v-102h-97z" glyph-name="question" horiz-adv-x="516" unicode="?"/><glyph d="M336 -13q-132 0 -220 84t-88 212q0 131 93 224t223 93q127 0 210 -78t83 -198q0 -82 -42 -135.5t-103 -53.5q-63 0 -84 47q-40 -51 -99 -51q-57 0 -91.5 37t-34.5 99q0 73 43 124t105 51q55 0 80 -38l2 32h71l-18 -158q0 -3 -1.5 -18t-2.5 -18q-1 -45 30 -45 q33 0 56 34.5t23 91.5q0 98 -62 156t-165 58q-106 0 -176.5 -72.5t-70.5 -180.5q0 -104 67.5 -169t171.5 -65h247v-63h-247zM316 193q33 0 58 32.5t25 76.5q0 37 -16.5 57t-46.5 20q-34 0 -57.5 -32.5t-23.5 -79.5q0 -35 16 -54.5t45 -19.5z" glyph-name="at" horiz-adv-x="634" unicode="@"/><glyph d="M120 0l-88 1l267 699h83l269 -700h-88l-72 189h-301zM215 264h252l-126 345z" glyph-name="A" horiz-adv-x="683" unicode="A"/><glyph d="M87 -2v702h297q76 -2 128 -52.5t52 -128.5q0 -46 -25.5 -85.5t-65.5 -56.5q53 -20 86 -69t33 -116q-1 -85 -55.5 -139.5t-138.5 -54.5h-311zM164 401h214q46 0 77 32t31 79q0 50 -31 84t-79 34h-212v-229zM165 73h215q56 0 93 35.5t37 88.5q0 57 -37.5 96t-92.5 39h-215 v-259z" glyph-name="B" horiz-adv-x="639" unicode="B"/><glyph d="M369 -6q-137 0 -227 99t-90 253q0 159 90.5 259.5t232.5 100.5q116 0 195 -66.5t95 -169.5h-84q-16 68 -72.5 114t-134.5 46q-105 0 -170.5 -80t-65.5 -205q0 -120 64.5 -196.5t167.5 -76.5q80 0 138 46.5t73 113.5h84q-18 -104 -98 -171t-198 -67z" glyph-name="C" horiz-adv-x="712" unicode="C"/><glyph d="M87 -2v702l255 2q144 1 232.5 -95.5t88.5 -251.5q0 -158 -86 -256.5t-225 -98.5zM163 73l173 2q112 1 180.5 76.5t68.5 199.5t-67 200t-177 74l-178 -2v-550z" glyph-name="D" horiz-adv-x="715" unicode="D"/><glyph d="M87 0v700h441v-75h-364v-234h343v-73h-343v-243h364v-75h-441z" glyph-name="E" horiz-adv-x="570" unicode="E"/><glyph d="M87 0v700h437v-73h-360v-238h339v-69h-339v-320h-77z" glyph-name="F" horiz-adv-x="536" unicode="F"/><glyph d="M373 -6q-138 0 -229.5 99t-91.5 253q0 159 93 260t235 101q115 0 196.5 -67t96.5 -170h-84q-11 68 -71 115t-139 47q-105 0 -174 -81.5t-69 -205.5q0 -119 68.5 -197t171.5 -77q77 0 144.5 52.5t78.5 153.5h-211v76l289 -1v-352l-71 -1l-3 123q-37 -63 -99 -95.5 t-131 -32.5z" glyph-name="G" horiz-adv-x="759" unicode="G"/><glyph d="M87 0v700h81v-308h365v308h81v-700h-81v322h-365v-322h-81z" glyph-name="H" horiz-adv-x="701" unicode="H"/><glyph d="M92 0v700h79v-700h-79z" glyph-name="I" horiz-adv-x="263" unicode="I"/><glyph d="M228 -8q-92 0 -148.5 56t-57.5 149v55h75v-53q1 -61 37 -97.5t93 -36.5q59 0 94 38.5t35 107.5v489h79v-491q0 -100 -57.5 -158.5t-149.5 -58.5z" glyph-name="J" horiz-adv-x="512" unicode="J"/><glyph d="M87 0v700h75v-356l331 356l99 1l-287 -310l293 -391h-99l-248 335l-89 -96v-239h-75z" glyph-name="K" horiz-adv-x="615" unicode="K"/><glyph d="M87 0v700h81v-624h317v-76h-398z" glyph-name="L" horiz-adv-x="512" unicode="L"/><glyph d="M87 0v700h102l231 -608l225 608h101v-700h-76v564l-208 -564h-87l-211 568v-568h-77z" glyph-name="M" horiz-adv-x="833" unicode="M"/><glyph d="M531 -1l-369 585v-584h-75v700h93l373 -591v590h75v-700h-97z" glyph-name="N" horiz-adv-x="715" unicode="N"/><glyph d="M378 -10q-139 0 -232.5 103.5t-93.5 256.5q0 154 92.5 256t233.5 102t233.5 -102.5t92.5 -257.5q0 -152 -93.5 -255t-232.5 -103zM376 66q109 0 179 80t70 198q0 124 -69 206.5t-178 82.5q-108 0 -176.5 -82t-68.5 -205q0 -119 68.5 -199.5t174.5 -80.5z" glyph-name="O" horiz-adv-x="756" unicode="O"/><glyph d="M87 -1v701l280 1q92 -1 148.5 -59t56.5 -149q0 -90 -58 -147t-153 -57h-198v-290h-76zM163 358h193q63 0 102 36.5t39 98.5q0 64 -39 101.5t-102 37.5h-192z" glyph-name="P" horiz-adv-x="604" unicode="P"/><glyph d="M662 -32l-109 83q-79 -55 -180 -55q-136 0 -228.5 101t-92.5 253t92 252t229 100t228.5 -100t91.5 -254q0 -151 -87 -249l100 -78zM371 71q64 0 114 32l-92 70l46 52l102 -78q72 78 72 197q0 121 -69 202.5t-171 81.5q-103 0 -170.5 -80.5t-67.5 -201.5q0 -118 67 -196.5 t169 -78.5z" glyph-name="Q" horiz-adv-x="758" unicode="Q"/><glyph d="M87 -1v701l281 1q96 1 150.5 -50.5t54.5 -137.5q0 -57 -31.5 -102t-78.5 -60q51 -16 70 -56t24 -115q1 -14 3 -41t2.5 -35t2.5 -26t3.5 -24t4 -17.5t6 -19.5t8.5 -17h-87q-4 10 -7 20t-5 26t-2.5 25.5t-2.5 38.5t-3 45q-6 83 -19 109q-27 54 -117 54h-180v-319h-77z M164 386h193q61 0 101 33.5t40 89.5q0 60 -37 91.5t-104 31.5h-192z" glyph-name="R" horiz-adv-x="652" unicode="R"/><glyph d="M328 -7q-112 0 -192.5 58t-88.5 165h88q11 -71 63 -110.5t136 -39.5q75 0 118.5 36t43.5 93q0 52 -37.5 80.5t-126.5 42.5q-141 21 -203.5 70t-62.5 127q0 80 67.5 135.5t167.5 55.5q122 0 193 -59.5t72 -162.5h-82q-5 71 -52.5 109t-127.5 38q-67 0 -110 -33.5 t-43 -81.5q0 -94 176 -120q141 -21 197.5 -69t56.5 -133q0 -91 -70 -146t-183 -55z" glyph-name="S" horiz-adv-x="628" unicode="S"/><glyph d="M263 0v627h-251v73h578v-73h-250v-627h-77z" glyph-name="T" horiz-adv-x="602" unicode="T"/><glyph d="M347 -8q-123 0 -196.5 72.5t-73.5 196.5v439h78v-439q0 -92 52 -143.5t140 -51.5q87 0 139.5 51.5t52.5 143.5v439h77v-439q0 -124 -73.5 -196.5t-195.5 -72.5z" glyph-name="U" horiz-adv-x="693" unicode="U"/><glyph d="M278 0l-256 700h79l224 -610l220 610h80l-256 -700h-91z" glyph-name="V" horiz-adv-x="647" unicode="V"/><glyph d="M225 0l-198 700h78l164 -592l161 592h75l165 -593l157 593h79l-194 -700h-87l-158 573l-156 -573h-86z" glyph-name="W" horiz-adv-x="933" unicode="W"/><glyph d="M32 0l258 350l-258 350h95l210 -286l209 286h95l-258 -350l258 -350h-95l-209 286l-210 -286h-95z" glyph-name="X" horiz-adv-x="673" unicode="X"/><glyph d="M277 0v288l-255 412h85l209 -343l213 343h81l-255 -412v-288h-78z" glyph-name="Y" horiz-adv-x="632" unicode="Y"/><glyph d="M52 0v75l461 550h-455v75h551v-75l-460 -550h454v-75h-551z" glyph-name="Z" horiz-adv-x="651" unicode="Z"/><glyph d="M83 -317v1134h187v-58h-123v-1018h123v-58h-187z" glyph-name="bracketleft" horiz-adv-x="270" unicode="["/><glyph d="M518 -230l-492 980h74l492 -980h-74z" glyph-name="backslash" horiz-adv-x="576" unicode="\"/><glyph d="M83 -317v58h123v1018h-123v58h187v-1134h-187z" glyph-name="bracketright" horiz-adv-x="270" unicode="]"/><glyph d="M94 -58v58h500v-58h-500z" glyph-name="underscore" horiz-adv-x="687" unicode="_"/><glyph d="M12 590l-122 124h96l104 -124h-78z" glyph-name="grave" horiz-adv-x="132" unicode="`"/><glyph d="M211 -10q-70 0 -119.5 41t-49.5 110q0 70 47 108q46 36 135 44q27 3 41.5 4.5t39 6.5t38 12t24 19.5t10.5 28.5q0 37 -31.5 58.5t-78.5 21.5q-55 0 -88 -26.5t-39 -70.5l-79 -1q8 75 62.5 120.5t141.5 45.5q89 0 139 -46.5t50 -121.5v-344h-77v70q-61 -80 -166 -80z M221 59q58 -1 106.5 35.5t49.5 106.5v67q-30 -27 -135 -36q-120 -10 -120 -88q0 -39 29 -61.5t70 -23.5z" glyph-name="a" horiz-adv-x="521" unicode="a"/><glyph d="M318 -11q-55 0 -101.5 27t-66.5 64v-80h-73v700h73v-285q24 39 69.5 64.5t101.5 25.5q94 0 158.5 -71t64.5 -187t-66 -187t-160 -71zM310 61q69 0 111.5 53t42.5 136q0 81 -42.5 132.5t-111.5 51.5q-72 0 -117 -53.5t-45 -137.5q0 -80 45 -131t117 -51z" glyph-name="b" horiz-adv-x="586" unicode="b"/><glyph d="M270 -7q-99 0 -163.5 71.5t-64.5 185.5q0 116 64.5 188t167.5 72q82 0 140 -48.5t68 -124.5h-76q-10 46 -46.5 76t-85.5 30q-67 0 -109.5 -52.5t-42.5 -139.5q0 -85 42 -137t109 -52q51 0 88 30.5t45 76.5h76q-10 -77 -69 -126.5t-143 -49.5z" glyph-name="c" horiz-adv-x="524" unicode="c"/><glyph d="M268 -11q-94 0 -160 71t-66 187t64.5 187t158.5 71q57 0 102.5 -25.5t68.5 -64.5v285h73v-700h-73v80q-20 -38 -66 -64.5t-102 -26.5zM277 61q72 0 116.5 51t44.5 131q0 84 -44.5 137.5t-116.5 53.5q-70 0 -112 -51.5t-42 -132.5q0 -83 42 -136t112 -53z" glyph-name="d" horiz-adv-x="586" unicode="d"/><glyph d="M274 -11q-104 0 -168 70t-64 187q0 116 63 188t168 72q106 0 165 -77t56 -199h-373v-1q0 -79 42 -125t113 -46q46 0 85.5 27t52.5 75h72q-11 -75 -69 -123t-143 -48zM124 297h289q-7 66 -42 103.5t-100 37.5q-64 0 -102 -38.5t-45 -102.5z" glyph-name="e" horiz-adv-x="536" unicode="e"/><glyph d="M83 0v433h-71v67h71v71q0 59 34.5 94t91.5 35h71v-69h-60q-62 0 -62 -71v-60h120v-67h-120v-433h-75z" glyph-name="f" horiz-adv-x="292" unicode="f"/><glyph d="M275 -207q-93 0 -152 48t-63 123h76q6 -38 32 -63t53 -33t55 -8q75 0 119.5 44t44.5 133v58q-23 -45 -72 -72.5t-105 -27.5q-99 0 -160 72.5t-61 185.5q0 112 63 185t161 73q54 0 102 -27t72 -71v87h74v-463q0 -120 -65.5 -182t-173.5 -62zM277 66q72 0 116.5 53.5 t44.5 137.5q0 80 -44.5 131t-116.5 51q-69 0 -111.5 -53t-42.5 -136q0 -81 42.5 -132.5t111.5 -51.5z" glyph-name="g" horiz-adv-x="586" unicode="g"/><glyph d="M77 0v700h75v-268q21 33 62 57t94 24q78 0 132 -53.5t54 -152.5v-307h-79v302q0 64 -33 104t-86 40q-64 0 -103.5 -48t-40.5 -129v-269h-75z" glyph-name="h" unicode="h"/><glyph d="M72 605v95h87v-95h-87zM77 0v500h77v-500h-77z" glyph-name="i" horiz-adv-x="231" unicode="i"/><glyph d="M74 605v95h86v-95h-86zM-8 -177v73h21q30 0 48 19t18 56v529h76v-537q0 -66 -37 -103t-98 -37h-28z" glyph-name="j" horiz-adv-x="227" unicode="j"/><glyph d="M77 0v700h75v-433l220 233h94l-186 -196l206 -304l-87 1l-169 247l-78 -82v-166h-75z" glyph-name="k" horiz-adv-x="508" unicode="k"/><glyph d="M77 0v700h78v-700h-78z" glyph-name="l" horiz-adv-x="232" unicode="l"/><glyph d="M77 0v500h75v-68q21 33 60.5 57t91.5 24q46 0 91 -23.5t72 -77.5q25 45 70.5 73t105.5 28q77 0 131 -53.5t54 -152.5v-307h-79v302q0 67 -33 105.5t-86 38.5q-60 0 -99.5 -48.5t-40.5 -128.5v-269h-79v302q0 67 -33 105.5t-86 38.5q-60 0 -99.5 -48.5t-40.5 -128.5v-269 h-75z" glyph-name="m" horiz-adv-x="900" unicode="m"/><glyph d="M77 0v500h75v-68q21 33 62 57t94 24q78 0 132 -53.5t54 -152.5v-307h-79v302q0 67 -33 105.5t-86 38.5q-61 0 -102 -48.5t-42 -128.5v-269h-75z" glyph-name="n" unicode="n"/><glyph d="M278 -5q-102 0 -169 72t-67 183q0 113 67 185t169 72q105 0 170 -71.5t65 -185.5q0 -111 -66.5 -183t-168.5 -72zM276 66q74 0 118.5 51t44.5 131q0 84 -42.5 136t-118.5 52q-71 0 -115.5 -52t-44.5 -134q0 -81 43.5 -132.5t114.5 -51.5z" glyph-name="o" horiz-adv-x="555" unicode="o"/><glyph d="M77 -200v700h73v-80q20 37 66.5 64t101.5 27q94 0 160 -71t66 -187t-64.5 -187t-158.5 -71q-56 0 -101.5 25.5t-69.5 64.5v-285h-73zM310 66q69 0 111.5 51.5t42.5 132.5q0 83 -42.5 136t-111.5 53q-72 0 -117 -51t-45 -131q0 -84 45 -137.5t117 -53.5z" glyph-name="p" horiz-adv-x="586" unicode="p"/><glyph d="M436 -200v285q-23 -39 -68.5 -64.5t-102.5 -25.5q-94 0 -158.5 71t-64.5 187t66 187t160 71q56 0 102 -26.5t66 -64.5v80h73v-700h-73zM277 66q72 0 116.5 53.5t44.5 137.5q0 80 -44.5 131t-116.5 51q-70 0 -112 -53t-42 -136q0 -81 42 -132.5t112 -51.5z" glyph-name="q" horiz-adv-x="586" unicode="q"/><glyph d="M77 0v500h74v-68q12 29 50 54t107 22l9 -1v-75l-7 -1q-159 6 -159 -152v-279h-74z" glyph-name="r" horiz-adv-x="335" unicode="r"/><glyph d="M246 -11q-85 0 -145 44.5t-64 126.5h76q6 -51 43.5 -78t92.5 -27q54 0 81 25.5t27 62.5q0 33 -26 51.5t-87 28.5q-104 17 -148 54t-44 93q0 58 50 98.5t125 40.5q83 0 139 -43t57 -127h-72q-7 103 -121 103q-43 0 -72.5 -20t-29.5 -52q0 -62 115 -80q104 -15 147.5 -49.5 t43.5 -99.5q0 -66 -52.5 -109t-135.5 -43z" glyph-name="s" horiz-adv-x="471" unicode="s"/><glyph d="M204 0q-57 0 -91.5 35t-34.5 94v304h-76v67h76v147h75v-147h121v-67h-121v-293q0 -70 62 -70h60v-70h-71z" glyph-name="t" horiz-adv-x="297" unicode="t"/><glyph d="M258 -13q-78 0 -132 53.5t-54 152.5v307h79v-302q1 -64 34 -104t85 -40q65 0 104 48t40 129v269h75v-500h-75v68q-20 -32 -61.5 -56.5t-94.5 -24.5z" glyph-name="u" unicode="u"/><glyph d="M207 0l-195 500h81l154 -408l154 408h83l-197 -500h-80z" glyph-name="v" horiz-adv-x="496" unicode="v"/><glyph d="M174 0l-157 500h85l116 -409l115 409h73l116 -409l115 409h86l-157 -500h-89l-107 380l-107 -380h-89z" glyph-name="w" horiz-adv-x="740" unicode="w"/><glyph d="M22 0l180 250l-180 250h89l135 -189l133 189h89l-179 -250l179 -250h-88l-134 189l-136 -189h-88z" glyph-name="x" horiz-adv-x="490" unicode="x"/><glyph d="M41 -200v71h36q71 0 98 71l33 88l-196 470h85l150 -376l146 376h84l-226 -574q-25 -62 -64 -93.5t-105 -32.5h-41z" glyph-name="y" horiz-adv-x="489" unicode="y"/><glyph d="M42 0v70l307 361h-307v70l399 -1v-69l-306 -361h304v-70h-397z" glyph-name="z" horiz-adv-x="493" unicode="z"/><glyph d="M242 -310q-43 0 -77.5 38t-34.5 90v237q0 75 -13.5 108.5t-61.5 57.5v57q48 25 61.5 59t13.5 106v237q0 56 33.5 91.5t77.5 35.5h25v-57q-40 0 -58 -19.5t-18 -60.5v-242q0 -64 -14 -106t-59 -73q45 -30 59 -72.5t14 -106.5v-245q0 -40 18 -58.5t58 -18.5v-58h-24z" glyph-name="braceleft" horiz-adv-x="319" unicode="{"/><glyph d="M113 -150v900h61v-900h-61z" glyph-name="bar" horiz-adv-x="287" unicode="|"/><glyph d="M55 -310v58q41 0 58.5 19t17.5 59v244q0 64 14 106t59 73q-45 30 -59 72.5t-14 106.5v243q0 79 -76 79v57h25q43 0 77 -36.5t34 -90.5v-237q0 -73 13 -107t62 -59v-57q-48 -24 -61.5 -58t-13.5 -107v-237q0 -54 -34.5 -91t-77.5 -37h-24z" glyph-name="braceright" horiz-adv-x="319" unicode="}"/><glyph d="M95 447v102h96v-102h-96zM101 -201l10 544h63l10 -544h-83z" glyph-name="exclamdown" horiz-adv-x="285" unicode="¡"/><glyph d="M244 0v75q-88 11 -143.5 80.5t-55.5 175.5t55 176t145 81v78h64v-78q70 -9 118.5 -55.5t57.5 -114.5h-76q-10 46 -46.5 76t-85.5 30q-67 0 -109.5 -52.5t-42.5 -139.5q0 -86 42 -137.5t109 -51.5q51 0 88 30.5t45 76.5h76q-9 -69 -57 -116t-119 -58v-76h-65z" glyph-name="cent" horiz-adv-x="536" unicode="¢"/><glyph d="M555 143q-4 -70 -47 -111t-106 -41q-47 0 -119 34.5t-102 34.5q-28 0 -48.5 -16t-21.5 -46h-70q1 46 25 79t66 47q19 40 19 75q1 51 -18 116h-83v64l67 -1q-24 86 -24 146q2 86 64 144.5t155 58.5q92 0 152 -51t67 -139h-71q-9 65 -50 95t-100 29q-62 0 -105.5 -40.5 t-43.5 -101.5q0 -18 2.5 -38t5.5 -32t10 -36.5t9 -33.5h226v-64h-207q16 -73 16 -118q0 -33 -14 -73q27 -6 92.5 -35t93.5 -29q40 0 62.5 22t24.5 61h73z" glyph-name="sterling" horiz-adv-x="600" unicode="£"/><glyph d="M302 0v143h-207v62h207v83h-207v63h193l-244 379h87l210 -332l215 332h83l-245 -379h195v-63h-208v-83h208v-62h-208v-143h-79z" glyph-name="yen" horiz-adv-x="663" unicode="¥"/><glyph d="M101 390v360h65v-360h-65zM101 -150v360h65v-360h-65z" glyph-name="brokenbar" horiz-adv-x="287" unicode="¦"/><glyph d="M82 597v102h97v-102h-97zM252 597v102h96v-102h-96z" glyph-name="dieresis" horiz-adv-x="53" unicode="¨"/><glyph d="M438 -13q-160 0 -273.5 114t-113.5 274t113.5 273.5t273.5 113.5t274 -113.5t114 -273.5q0 -161 -114 -274.5t-274 -113.5zM438 33q143 0 243 99.5t100 242.5q0 142 -100 241.5t-243 99.5q-142 0 -241.5 -99.5t-99.5 -241.5t99.5 -242t241.5 -100zM437 154q-87 0 -143 62 t-56 157q0 98 56.5 161t144.5 63q73 0 122.5 -42t60.5 -108h-61q-9 41 -42.5 67.5t-79.5 26.5q-62 0 -100.5 -47t-38.5 -122q0 -71 38 -116t98 -45q47 0 81.5 27t43.5 66h61q-12 -65 -62 -107.5t-123 -42.5z" glyph-name="copyright" horiz-adv-x="876" unicode="©"/><glyph d="M251 95l-152 184l152 184h74l-152 -184l152 -184h-74zM439 95l-152 184l152 184h75l-152 -184l152 -184h-75z" glyph-name="guillemotleft" horiz-adv-x="612" unicode="«"/><glyph d="M94 228v54h350v-54h-350z" glyph-name="uni00AD" horiz-adv-x="590" unicode="­"/><glyph d="M438 -13q-160 0 -274 113.5t-114 274.5t114 274.5t274 113.5t274 -113.5t114 -274.5t-114 -274.5t-274 -113.5zM438 34q142 0 242 99.5t100 241.5t-100 241.5t-242 99.5t-241.5 -99.5t-99.5 -241.5t99.5 -241.5t241.5 -99.5zM543 169q-8 18 -12 93q-2 22 -3 31t-5.5 24 t-12 21t-21.5 11t-35 5h-100v-184h-56v421l172 1q58 0 92 -32t34 -85q0 -32 -16 -58.5t-41 -38.5q25 -11 35.5 -35t12.5 -65q3 -40 4.5 -53.5t5 -28.5t10.5 -27h-64zM354 405h109q34 0 56 18t22 49q0 68 -78 68h-109v-135z" glyph-name="registered" horiz-adv-x="876" unicode="®"/><glyph d="M34 599v62h310v-62h-310z" glyph-name="macron" horiz-adv-x="67" unicode="¯"/><glyph d="M248 492q-55 0 -94.5 39.5t-39.5 94.5q0 56 39 95t95 39q55 0 94.5 -39.5t39.5 -94.5t-39.5 -94.5t-94.5 -39.5zM248 547q34 0 56.5 22.5t22.5 56.5t-22.5 56.5t-56.5 22.5t-56.5 -22.5t-22.5 -56.5t22.5 -56.5t56.5 -22.5z" glyph-name="degree" horiz-adv-x="495" unicode="°"/><glyph d="M-33 590h-78l104 124h96z" glyph-name="acute" horiz-adv-x="132" unicode="´"/><glyph d="M94 254v102h96v-102h-96z" glyph-name="periodcentered" horiz-adv-x="270" unicode="·"/><glyph d="M141 -260q-34 0 -67.5 19t-47.5 46l44 18q11 -15 31.5 -25t39.5 -10q23 0 39 16t16 40q0 22 -13.5 35t-35.5 15q-23 3 -48 -8l-40 26l46 88h49l-33 -66q18 3 33 2q39 -2 65 -27.5t26 -64.5q0 -44 -30.5 -74t-73.5 -30z" glyph-name="cedilla" horiz-adv-x="53" unicode="¸"/><glyph d="M98 95l152 184l-152 184h74l152 -184l-152 -184h-74zM286 95l152 184l-152 184h75l152 -184l-152 -184h-75z" glyph-name="guillemotright" horiz-adv-x="612" unicode="»"/><glyph d="M228 447v102h96v-102h-96zM274 -200q-91 0 -152 58t-61 138q0 41 18.5 75t44.5 58t52.5 48t45 57.5t18.5 74.5v61h73v-52q0 -55 -18.5 -97t-45.5 -67t-53.5 -47t-45 -49.5t-18.5 -61.5q0 -56 42 -93t99 -37q54 0 96.5 36t46.5 96h70q-1 -84 -63.5 -141t-148.5 -57z" glyph-name="questiondown" horiz-adv-x="520" unicode="¿"/><glyph d="M319 753l-122 124h96l104 -124h-78zM120 0l-88 1l267 699h83l269 -700h-88l-72 189h-301zM215 264h252l-126 345z" glyph-name="Agrave" horiz-adv-x="683" unicode="À"/><glyph d="M373 751h-78l103 124h97zM120 0l-88 1l267 699h83l269 -700h-88l-72 189h-301zM215 264h252l-126 345z" glyph-name="Aacute" horiz-adv-x="683" unicode="Á"/><glyph d="M286 875h103l103 -128h-85l-69 83l-69 -83h-85zM120 0l-88 1l267 699h83l269 -700h-88l-72 189h-301zM215 264h252l-126 345z" glyph-name="Acircumflex" horiz-adv-x="683" unicode="Â"/><glyph d="M411 745q-58 0 -94 55q-18 28 -42 28q-18 0 -29 -13.5t-11 -35.5q0 -16 3 -25h-60q-3 12 -3 23q-1 48 26.5 79t70.5 31q58 0 95 -55q16 -28 42 -28q20 0 30.5 16t8.5 42q0 5 -2 15h60q1 -5 1 -16q5 -50 -22.5 -83t-73.5 -33zM120 0l-88 1l267 699h83l269 -700h-88 l-72 189h-301zM215 264h252l-126 345z" glyph-name="Atilde" horiz-adv-x="683" unicode="Ã"/><glyph d="M206 755v102h97v-102h-97zM376 755v102h96v-102h-96zM120 0l-88 1l267 699h83l269 -700h-88l-72 189h-301zM215 264h252l-126 345z" glyph-name="Adieresis" horiz-adv-x="683" unicode="Ä"/><glyph d="M341 743q-39 0 -67 28t-28 66q0 39 28 67t67 28t66 -28t28 -67q0 -38 -27.5 -66t-66.5 -28zM341 789q21 0 34.5 13.5t13.5 34.5t-13.5 35.5t-34.5 14.5t-35 -14.5t-14 -35.5t14 -34.5t35 -13.5zM120 0l-88 1l267 699h83l269 -700h-88l-72 189h-301zM215 264h252l-126 345 z" glyph-name="Aring" horiz-adv-x="683" unicode="Å"/><glyph d="M845 625h-364v-234h343v-73h-343v-243h364v-75h-441v192h-215l-73 -192l-84 1l264 699h549v-75zM214 268h190v356h-60z" glyph-name="AE" horiz-adv-x="887" unicode="Æ"/><glyph d="M370 72q80 0 138 46.5t73 113.5h84q-18 -104 -98 -171t-198 -67l-17 -34q12 3 33 3q40 -3 65.5 -28.5t25.5 -64.5q0 -44 -30 -74t-74 -30q-34 0 -67.5 19t-47.5 46l45 19q11 -15 31 -25.5t39 -10.5q24 0 39.5 16t15.5 40q0 22 -13.5 35.5t-35.5 15.5q-20 3 -48 -8l-39 25 l30 59q-119 18 -194 114t-75 235q0 159 90.5 259.5t232.5 100.5q116 0 195 -66.5t95 -169.5h-84q-16 68 -72.5 114t-134.5 46q-105 0 -170.5 -80t-65.5 -205q0 -120 64.5 -196.5t167.5 -76.5z" glyph-name="Ccedilla" horiz-adv-x="712" unicode="Ç"/><glyph d="M286 753l-122 124h96l104 -124h-78zM87 0v700h441v-75h-364v-234h343v-73h-343v-243h364v-75h-441z" glyph-name="Egrave" horiz-adv-x="570" unicode="È"/><glyph d="M340 751h-78l103 124h97zM87 0v700h441v-75h-364v-234h343v-73h-343v-243h364v-75h-441z" glyph-name="Eacute" horiz-adv-x="570" unicode="É"/><glyph d="M252 875h103l103 -128h-85l-69 83l-69 -83h-85zM87 0v700h441v-75h-364v-234h343v-73h-343v-243h364v-75h-441z" glyph-name="Ecircumflex" horiz-adv-x="570" unicode="Ê"/><glyph d="M173 755v102h97v-102h-97zM343 755v102h96v-102h-96zM87 0v700h441v-75h-364v-234h343v-73h-343v-243h364v-75h-441z" glyph-name="Edieresis" horiz-adv-x="570" unicode="Ë"/><glyph d="M110 753l-122 124h96l104 -124h-78zM92 0v700h79v-700h-79z" glyph-name="Igrave" horiz-adv-x="263" unicode="Ì"/><glyph d="M163 751h-78l103 124h97zM92 0v700h79v-700h-79z" glyph-name="Iacute" horiz-adv-x="263" unicode="Í"/><glyph d="M76 875h103l103 -128h-85l-69 83l-69 -83h-85zM92 0v700h79v-700h-79z" glyph-name="Icircumflex" horiz-adv-x="263" unicode="Î"/><glyph d="M-3 755v102h96v-102h-96zM166 755v102h96v-102h-96zM92 0v700h79v-700h-79z" glyph-name="Idieresis" horiz-adv-x="260" unicode="Ï"/><glyph d="M388 702q144 1 232.5 -95.5t88.5 -251.5q0 -158 -86 -256.5t-225 -98.5l-265 -2v321h-46v71h46v310zM382 75q112 1 180.5 76.5t68.5 199.5t-67 200t-177 74l-178 -2v-233h82v-71h-82v-246z" glyph-name="Eth" horiz-adv-x="761" unicode="Ð"/><glyph d="M427 745q-58 0 -94 55q-18 28 -42 28q-18 0 -29 -13.5t-11 -35.5q0 -16 3 -25h-60q-3 12 -3 23q-1 48 26.5 79t70.5 31q58 0 95 -55q16 -28 42 -28q20 0 30.5 16t8.5 42q0 5 -2 15h60q1 -5 1 -16q5 -50 -22.5 -83t-73.5 -33zM531 -1l-369 585v-584h-75v700h93l373 -591 v590h75v-700h-97z" glyph-name="Ntilde" horiz-adv-x="715" unicode="Ñ"/><glyph d="M356 753l-122 124h96l104 -124h-78zM378 -10q-139 0 -232.5 103.5t-93.5 256.5q0 154 92.5 256t233.5 102t233.5 -102.5t92.5 -257.5q0 -152 -93.5 -255t-232.5 -103zM376 66q109 0 179 80t70 198q0 124 -69 206.5t-178 82.5q-108 0 -176.5 -82t-68.5 -205 q0 -119 68.5 -199.5t174.5 -80.5z" glyph-name="Ograve" horiz-adv-x="756" unicode="Ò"/><glyph d="M409 751h-78l103 124h97zM378 -10q-139 0 -232.5 103.5t-93.5 256.5q0 154 92.5 256t233.5 102t233.5 -102.5t92.5 -257.5q0 -152 -93.5 -255t-232.5 -103zM376 66q109 0 179 80t70 198q0 124 -69 206.5t-178 82.5q-108 0 -176.5 -82t-68.5 -205q0 -119 68.5 -199.5 t174.5 -80.5z" glyph-name="Oacute" horiz-adv-x="756" unicode="Ó"/><glyph d="M322 875h103l103 -128h-85l-69 83l-69 -83h-85zM378 -10q-139 0 -232.5 103.5t-93.5 256.5q0 154 92.5 256t233.5 102t233.5 -102.5t92.5 -257.5q0 -152 -93.5 -255t-232.5 -103zM376 66q109 0 179 80t70 198q0 124 -69 206.5t-178 82.5q-108 0 -176.5 -82t-68.5 -205 q0 -119 68.5 -199.5t174.5 -80.5z" glyph-name="Ocircumflex" horiz-adv-x="756" unicode="Ô"/><glyph d="M447 745q-58 0 -94 55q-18 28 -42 28q-18 0 -29 -13.5t-11 -35.5q0 -16 3 -25h-60q-3 12 -3 23q-1 48 26.5 79t70.5 31q58 0 95 -55q16 -28 42 -28q20 0 30.5 16t8.5 42q0 5 -2 15h60q1 -5 1 -16q5 -50 -22.5 -83t-73.5 -33zM378 -10q-139 0 -232.5 103.5t-93.5 256.5 q0 154 92.5 256t233.5 102t233.5 -102.5t92.5 -257.5q0 -152 -93.5 -255t-232.5 -103zM376 66q109 0 179 80t70 198q0 124 -69 206.5t-178 82.5q-108 0 -176.5 -82t-68.5 -205q0 -119 68.5 -199.5t174.5 -80.5z" glyph-name="Otilde" horiz-adv-x="756" unicode="Õ"/><glyph d="M243 755v102h97v-102h-97zM413 755v102h96v-102h-96zM378 -10q-139 0 -232.5 103.5t-93.5 256.5q0 154 92.5 256t233.5 102t233.5 -102.5t92.5 -257.5q0 -152 -93.5 -255t-232.5 -103zM376 66q109 0 179 80t70 198q0 124 -69 206.5t-178 82.5q-108 0 -176.5 -82 t-68.5 -205q0 -119 68.5 -199.5t174.5 -80.5z" glyph-name="Odieresis" horiz-adv-x="756" unicode="Ö"/><glyph d="M187 65l-53 53l192 192l-192 193l53 53l192 -193l193 193l53 -53l-193 -193l193 -192l-53 -53l-193 192z" glyph-name="multiply" horiz-adv-x="731" unicode="×"/><glyph d="M617 599q87 -101 87 -251q0 -152 -93.5 -255t-232.5 -103q-121 0 -208 79l-59 -69h-82l98 116q-75 99 -75 234q0 154 92.5 256t233.5 102q111 0 194 -66l49 58h82zM133 346q0 -94 46 -169l343 406q-61 50 -144 50q-108 0 -176.5 -82t-68.5 -205zM376 66q109 0 179 80 t70 198q0 115 -59 194l-347 -410q65 -62 157 -62z" glyph-name="Oslash" horiz-adv-x="769" unicode="Ø"/><glyph d="M327 753l-122 124h96l104 -124h-78zM347 -8q-123 0 -196.5 72.5t-73.5 196.5v439h78v-439q0 -92 52 -143.5t140 -51.5q87 0 139.5 51.5t52.5 143.5v439h77v-439q0 -124 -73.5 -196.5t-195.5 -72.5z" glyph-name="Ugrave" horiz-adv-x="693" unicode="Ù"/><glyph d="M380 751h-78l103 124h97zM347 -8q-123 0 -196.5 72.5t-73.5 196.5v439h78v-439q0 -92 52 -143.5t140 -51.5q87 0 139.5 51.5t52.5 143.5v439h77v-439q0 -124 -73.5 -196.5t-195.5 -72.5z" glyph-name="Uacute" horiz-adv-x="693" unicode="Ú"/><glyph d="M293 875h103l103 -128h-85l-69 83l-69 -83h-85zM347 -8q-123 0 -196.5 72.5t-73.5 196.5v439h78v-439q0 -92 52 -143.5t140 -51.5q87 0 139.5 51.5t52.5 143.5v439h77v-439q0 -124 -73.5 -196.5t-195.5 -72.5z" glyph-name="Ucircumflex" horiz-adv-x="693" unicode="Û"/><glyph d="M214 755v102h97v-102h-97zM384 755v102h96v-102h-96zM347 -8q-123 0 -196.5 72.5t-73.5 196.5v439h78v-439q0 -92 52 -143.5t140 -51.5q87 0 139.5 51.5t52.5 143.5v439h77v-439q0 -124 -73.5 -196.5t-195.5 -72.5z" glyph-name="Udieresis" horiz-adv-x="693" unicode="Ü"/><glyph d="M347 751h-78l103 124h97zM277 0v288l-255 412h85l209 -343l213 343h81l-255 -412v-288h-78z" glyph-name="Yacute" horiz-adv-x="632" unicode="Ý"/><glyph d="M87 -1v701h76v-137l204 1q92 0 148.5 -58.5t56.5 -149.5q0 -90 -58 -147t-153 -57h-198v-153h-76zM163 222h193q63 0 102 36.5t39 98.5q0 64 -39 101.5t-102 37.5h-192z" glyph-name="Thorn" horiz-adv-x="604" unicode="Þ"/><glyph d="M246 -6l-1 73h93q66 0 108.5 34t42.5 88q0 61 -49 97.5t-137 36.5h-25v67h22q80 0 128 40.5t48 98.5q0 54 -43 86t-105 32q-75 0 -119 -44t-44 -117v-491h-78v491q0 106 67 168.5t180 62.5q100 0 163 -50.5t63 -134.5q0 -57 -31.5 -101t-85.5 -67q62 -19 97 -65.5 t35 -107.5q0 -88 -66 -142.5t-171 -54.5h-92z" glyph-name="germandbls" horiz-adv-x="622" unicode="ß"/><glyph d="M240 557l-122 124h96l104 -124h-78zM211 -10q-70 0 -119.5 41t-49.5 110q0 70 47 108q46 36 135 44q27 3 41.5 4.5t39 6.5t38 12t24 19.5t10.5 28.5q0 37 -31.5 58.5t-78.5 21.5q-55 0 -88 -26.5t-39 -70.5l-79 -1q8 75 62.5 120.5t141.5 45.5q89 0 139 -46.5t50 -121.5 v-344h-77v70q-61 -80 -166 -80zM221 59q58 -1 106.5 35.5t49.5 106.5v67q-30 -27 -135 -36q-120 -10 -120 -88q0 -39 29 -61.5t70 -23.5z" glyph-name="agrave" horiz-adv-x="521" unicode="à"/><glyph d="M294 556h-78l103 124h97zM211 -10q-70 0 -119.5 41t-49.5 110q0 70 47 108q46 36 135 44q27 3 41.5 4.5t39 6.5t38 12t24 19.5t10.5 28.5q0 37 -31.5 58.5t-78.5 21.5q-55 0 -88 -26.5t-39 -70.5l-79 -1q8 75 62.5 120.5t141.5 45.5q89 0 139 -46.5t50 -121.5v-344h-77 v70q-61 -80 -166 -80zM221 59q58 -1 106.5 35.5t49.5 106.5v67q-30 -27 -135 -36q-120 -10 -120 -88q0 -39 29 -61.5t70 -23.5z" glyph-name="aacute" horiz-adv-x="521" unicode="á"/><glyph d="M206 680h103l103 -128h-85l-69 83l-69 -83h-85zM211 -10q-70 0 -119.5 41t-49.5 110q0 70 47 108q46 36 135 44q27 3 41.5 4.5t39 6.5t38 12t24 19.5t10.5 28.5q0 37 -31.5 58.5t-78.5 21.5q-55 0 -88 -26.5t-39 -70.5l-79 -1q8 75 62.5 120.5t141.5 45.5q89 0 139 -46.5 t50 -121.5v-344h-77v70q-61 -80 -166 -80zM221 59q58 -1 106.5 35.5t49.5 106.5v67q-30 -27 -135 -36q-120 -10 -120 -88q0 -39 29 -61.5t70 -23.5z" glyph-name="acircumflex" horiz-adv-x="521" unicode="â"/><glyph d="M332 550q-58 0 -94 55q-18 28 -42 28q-18 0 -29 -13.5t-11 -35.5q0 -16 3 -25h-60q-3 12 -3 23q-1 48 26.5 79t70.5 31q58 0 95 -55q16 -28 42 -28q20 0 30.5 16t8.5 42q0 5 -2 15h60q1 -5 1 -16q5 -50 -22.5 -83t-73.5 -33zM211 -10q-70 0 -119.5 41t-49.5 110 q0 70 47 108q46 36 135 44q27 3 41.5 4.5t39 6.5t38 12t24 19.5t10.5 28.5q0 37 -31.5 58.5t-78.5 21.5q-55 0 -88 -26.5t-39 -70.5l-79 -1q8 75 62.5 120.5t141.5 45.5q89 0 139 -46.5t50 -121.5v-344h-77v70q-61 -80 -166 -80zM221 59q58 -1 106.5 35.5t49.5 106.5v67 q-30 -27 -135 -36q-120 -10 -120 -88q0 -39 29 -61.5t70 -23.5z" glyph-name="atilde" horiz-adv-x="521" unicode="ã"/><glyph d="M127 560v102h97v-102h-97zM297 560v102h96v-102h-96zM211 -10q-70 0 -119.5 41t-49.5 110q0 70 47 108q46 36 135 44q27 3 41.5 4.5t39 6.5t38 12t24 19.5t10.5 28.5q0 37 -31.5 58.5t-78.5 21.5q-55 0 -88 -26.5t-39 -70.5l-79 -1q8 75 62.5 120.5t141.5 45.5 q89 0 139 -46.5t50 -121.5v-344h-77v70q-61 -80 -166 -80zM221 59q58 -1 106.5 35.5t49.5 106.5v67q-30 -27 -135 -36q-120 -10 -120 -88q0 -39 29 -61.5t70 -23.5z" glyph-name="adieresis" horiz-adv-x="521" unicode="ä"/><glyph d="M262 548q-39 0 -67 28t-28 66q0 39 28 67t67 28t66 -28t28 -67q0 -38 -27.5 -66t-66.5 -28zM262 594q21 0 34.5 13.5t13.5 34.5t-13.5 35.5t-34.5 14.5t-35 -14.5t-14 -35.5t14 -34.5t35 -13.5zM211 -10q-70 0 -119.5 41t-49.5 110q0 70 47 108q46 36 135 44 q27 3 41.5 4.5t39 6.5t38 12t24 19.5t10.5 28.5q0 37 -31.5 58.5t-78.5 21.5q-55 0 -88 -26.5t-39 -70.5l-79 -1q8 75 62.5 120.5t141.5 45.5q89 0 139 -46.5t50 -121.5v-344h-77v70q-61 -80 -166 -80zM221 59q58 -1 106.5 35.5t49.5 106.5v67q-30 -27 -135 -36 q-120 -10 -120 -88q0 -39 29 -61.5t70 -23.5z" glyph-name="aring" horiz-adv-x="521" unicode="å"/><glyph d="M836 230h-372v-1q0 -79 41.5 -125t112.5 -46q47 0 86 27t53 75h71q-10 -75 -68.5 -123t-143.5 -48q-134 0 -197 110q-17 -41 -74 -75t-129 -34q-70 0 -122 41.5t-52 109.5q0 70 47 108q46 36 135 44q27 3 41.5 4.5t39 6.5t38 12t24 19.5t10.5 28.5q0 37 -31.5 58.5 t-78.5 21.5q-55 0 -88 -26.5t-39 -70.5l-79 -1q8 75 62.5 120.5t141.5 45.5q63 0 107 -24t65 -66q65 84 179 84q105 0 164.5 -77t55.5 -199zM613 438q-63 0 -101 -38.5t-45 -102.5h288q-6 66 -41 103.5t-101 37.5zM377 201v67q-30 -27 -135 -36q-120 -9 -120 -88 q0 -39 29 -61.5t70 -23.5q58 -1 106.5 35.5t49.5 106.5z" glyph-name="ae" horiz-adv-x="879" unicode="æ"/><glyph d="M273 62q51 0 88 30.5t45 76.5h76q-10 -75 -67.5 -124.5t-138.5 -51.5l-17 -34q18 3 33 2q39 -2 65 -27.5t26 -64.5q0 -43 -30.5 -73.5t-73.5 -30.5q-34 0 -67.5 19t-47.5 46l44 18q11 -15 31.5 -25t39.5 -10q23 0 39 16t16 40q0 21 -13.5 34.5t-35.5 15.5q-23 3 -48 -8 l-40 26l31 60q-83 14 -134.5 83t-51.5 170q0 116 64.5 188t167.5 72q82 0 140 -48.5t68 -124.5h-76q-10 46 -46.5 76t-85.5 30q-67 0 -109.5 -52.5t-42.5 -139.5q0 -85 42 -137t109 -52z" glyph-name="ccedilla" horiz-adv-x="524" unicode="ç"/><glyph d="M248 555l-122 124h96l104 -124h-78zM274 -11q-104 0 -168 70t-64 187q0 116 63 188t168 72q106 0 165 -77t56 -199h-373v-1q0 -79 42 -125t113 -46q46 0 85.5 27t52.5 75h72q-11 -75 -69 -123t-143 -48zM124 297h289q-7 66 -42 103.5t-100 37.5q-64 0 -102 -38.5 t-45 -102.5z" glyph-name="egrave" horiz-adv-x="536" unicode="è"/><glyph d="M302 553h-78l103 124h97zM274 -11q-104 0 -168 70t-64 187q0 116 63 188t168 72q106 0 165 -77t56 -199h-373v-1q0 -79 42 -125t113 -46q46 0 85.5 27t52.5 75h72q-11 -75 -69 -123t-143 -48zM124 297h289q-7 66 -42 103.5t-100 37.5q-64 0 -102 -38.5t-45 -102.5z" glyph-name="eacute" horiz-adv-x="536" unicode="é"/><glyph d="M214 677h103l103 -128h-85l-69 83l-69 -83h-85zM274 -11q-104 0 -168 70t-64 187q0 116 63 188t168 72q106 0 165 -77t56 -199h-373v-1q0 -79 42 -125t113 -46q46 0 85.5 27t52.5 75h72q-11 -75 -69 -123t-143 -48zM124 297h289q-7 66 -42 103.5t-100 37.5 q-64 0 -102 -38.5t-45 -102.5z" glyph-name="ecircumflex" horiz-adv-x="536" unicode="ê"/><glyph d="M135 557v102h97v-102h-97zM305 557v102h96v-102h-96zM274 -11q-104 0 -168 70t-64 187q0 116 63 188t168 72q106 0 165 -77t56 -199h-373v-1q0 -79 42 -125t113 -46q46 0 85.5 27t52.5 75h72q-11 -75 -69 -123t-143 -48zM124 297h289q-7 66 -42 103.5t-100 37.5 q-64 0 -102 -38.5t-45 -102.5z" glyph-name="edieresis" horiz-adv-x="536" unicode="ë"/><glyph d="M105 553l-122 124h96l103 -124h-77zM88 0v500h78v-500h-78z" glyph-name="igrave" horiz-adv-x="228" unicode="ì"/><glyph d="M128 551h-77l103 124h96zM58 0v500h78v-500h-78z" glyph-name="iacute" horiz-adv-x="247" unicode="í"/><glyph d="M70 675h103l103 -128h-84l-70 83l-68 -83h-86zM87 0v500h78v-500h-78z" glyph-name="icircumflex" horiz-adv-x="261" unicode="î"/><glyph d="M-18 555v102h96v-102h-96zM151 555v102h96v-102h-96zM78 0v500h77v-500h-77z" glyph-name="idieresis" horiz-adv-x="246" unicode="ï"/><glyph d="M586 620v-65h-77v-555h-73v80q-20 -38 -66 -64.5t-102 -26.5q-94 0 -160 71t-66 187t64.5 187t158.5 71q57 0 102.5 -25.5t68.5 -64.5v140h-93v65h93v80h73v-80h77zM277 61q72 0 116.5 51t44.5 131q0 84 -44.5 137.5t-116.5 53.5q-70 0 -112 -51.5t-42 -132.5 q0 -83 42 -136t112 -53z" glyph-name="eth" horiz-adv-x="663" unicode="ð"/><glyph d="M357 549q-58 0 -94 55q-18 28 -42 28q-18 0 -29 -13.5t-11 -35.5q0 -16 3 -25h-60q-3 12 -3 23q-1 48 26.5 79t70.5 31q58 0 95 -55q16 -28 42 -28q20 0 30.5 16t8.5 42q0 5 -2 15h60q1 -5 1 -16q5 -50 -22.5 -83t-73.5 -33zM77 0v500h75v-68q21 33 62 57t94 24 q78 0 132 -53.5t54 -152.5v-307h-79v302q0 67 -33 105.5t-86 38.5q-61 0 -102 -48.5t-42 -128.5v-269h-75z" glyph-name="ntilde" unicode="ñ"/><glyph d="M256 553l-122 124h96l104 -124h-78zM278 -5q-102 0 -169 72t-67 183q0 113 67 185t169 72q105 0 170 -71.5t65 -185.5q0 -111 -66.5 -183t-168.5 -72zM276 66q74 0 118.5 51t44.5 131q0 84 -42.5 136t-118.5 52q-71 0 -115.5 -52t-44.5 -134q0 -81 43.5 -132.5 t114.5 -51.5z" glyph-name="ograve" horiz-adv-x="555" unicode="ò"/><glyph d="M309 551h-78l103 124h97zM278 -5q-102 0 -169 72t-67 183q0 113 67 185t169 72q105 0 170 -71.5t65 -185.5q0 -111 -66.5 -183t-168.5 -72zM276 66q74 0 118.5 51t44.5 131q0 84 -42.5 136t-118.5 52q-71 0 -115.5 -52t-44.5 -134q0 -81 43.5 -132.5t114.5 -51.5z" glyph-name="oacute" horiz-adv-x="555" unicode="ó"/><glyph d="M222 675h103l103 -128h-85l-69 83l-69 -83h-85zM278 -5q-102 0 -169 72t-67 183q0 113 67 185t169 72q105 0 170 -71.5t65 -185.5q0 -111 -66.5 -183t-168.5 -72zM276 66q74 0 118.5 51t44.5 131q0 84 -42.5 136t-118.5 52q-71 0 -115.5 -52t-44.5 -134 q0 -81 43.5 -132.5t114.5 -51.5z" glyph-name="ocircumflex" horiz-adv-x="555" unicode="ô"/><glyph d="M347 545q-58 0 -94 55q-18 28 -42 28q-18 0 -29 -13.5t-11 -35.5q0 -16 3 -25h-60q-3 12 -3 23q-1 48 26.5 79t70.5 31q58 0 95 -55q16 -28 42 -28q20 0 30.5 16t8.5 42q0 5 -2 15h60q1 -5 1 -16q5 -50 -22.5 -83t-73.5 -33zM278 -5q-102 0 -169 72t-67 183q0 113 67 185 t169 72q105 0 170 -71.5t65 -185.5q0 -111 -66.5 -183t-168.5 -72zM276 66q74 0 118.5 51t44.5 131q0 84 -42.5 136t-118.5 52q-71 0 -115.5 -52t-44.5 -134q0 -81 43.5 -132.5t114.5 -51.5z" glyph-name="otilde" horiz-adv-x="555" unicode="õ"/><glyph d="M143 555v102h97v-102h-97zM313 555v102h96v-102h-96zM278 -5q-102 0 -169 72t-67 183q0 113 67 185t169 72q105 0 170 -71.5t65 -185.5q0 -111 -66.5 -183t-168.5 -72zM276 66q74 0 118.5 51t44.5 131q0 84 -42.5 136t-118.5 52q-71 0 -115.5 -52t-44.5 -134 q0 -81 43.5 -132.5t114.5 -51.5z" glyph-name="odieresis" horiz-adv-x="555" unicode="ö"/><glyph d="M315 415v102h97v-102h-97zM104 256v63h523v-63h-523zM315 53v102h97v-102h-97z" glyph-name="divide" horiz-adv-x="727" unicode="÷"/><glyph d="M532 500l-72 -79q53 -70 53 -171q0 -111 -66.5 -183t-168.5 -72q-88 0 -151 55l-45 -50h-70l79 88q-49 68 -49 162q0 113 67 185t169 72q84 0 146 -49l38 42h70zM118 250q0 -60 25 -105l233 259q-42 32 -98 32q-71 0 -115.5 -52t-44.5 -134zM439 248q0 68 -29 117 l-235 -261q43 -38 101 -38q74 0 118.5 51t44.5 131z" glyph-name="oslash" horiz-adv-x="573" unicode="ø"/><glyph d="M261 553l-122 124h96l104 -124h-78zM258 -13q-78 0 -132 53.5t-54 152.5v307h79v-302q1 -64 34 -104t85 -40q65 0 104 48t40 129v269h75v-500h-75v68q-20 -32 -61.5 -56.5t-94.5 -24.5z" glyph-name="ugrave" unicode="ù"/><glyph d="M315 551h-78l103 124h97zM258 -13q-78 0 -132 53.5t-54 152.5v307h79v-302q1 -64 34 -104t85 -40q65 0 104 48t40 129v269h75v-500h-75v68q-20 -32 -61.5 -56.5t-94.5 -24.5z" glyph-name="uacute" unicode="ú"/><glyph d="M227 675h103l103 -128h-85l-69 83l-69 -83h-85zM258 -13q-78 0 -132 53.5t-54 152.5v307h79v-302q1 -64 34 -104t85 -40q65 0 104 48t40 129v269h75v-500h-75v68q-20 -32 -61.5 -56.5t-94.5 -24.5z" glyph-name="ucircumflex" unicode="û"/><glyph d="M148 555v102h97v-102h-97zM318 555v102h96v-102h-96zM258 -13q-78 0 -132 53.5t-54 152.5v307h79v-302q1 -64 34 -104t85 -40q65 0 104 48t40 129v269h75v-500h-75v68q-20 -32 -61.5 -56.5t-94.5 -24.5z" glyph-name="udieresis" unicode="ü"/><glyph d="M276 551h-78l103 124h97zM41 -200v71h36q71 0 98 71l33 88l-196 470h85l150 -376l146 376h84l-226 -574q-25 -62 -64 -93.5t-105 -32.5h-41z" glyph-name="yacute" horiz-adv-x="489" unicode="ý"/><glyph d="M61 -143v807h74v-244q20 38 66 64.5t102 26.5q93 0 159.5 -71t66.5 -187t-64.5 -187t-158.5 -71q-57 0 -102.5 25.5t-68.5 64.5v-228h-74zM294 66q69 0 111.5 51.5t42.5 132.5q0 83 -42.5 136t-111.5 53q-72 0 -116.5 -51t-44.5 -131q0 -84 44.5 -137.5t116.5 -53.5z" glyph-name="thorn" horiz-adv-x="564" unicode="þ"/><glyph d="M110 555v102h97v-102h-97zM280 555v102h96v-102h-96zM41 -200v71h36q71 0 98 71l33 88l-196 470h85l150 -376l146 376h84l-226 -574q-25 -62 -64 -93.5t-105 -32.5h-41z" glyph-name="ydieresis" horiz-adv-x="489" unicode="ÿ"/><glyph d="M190 765v62h310v-62h-310zM120 0l-88 1l267 699h83l269 -700h-88l-72 189h-301zM215 264h252l-126 345z" glyph-name="Amacron" horiz-adv-x="683" unicode="Ā"/><glyph d="M110 570v62h310v-62h-310zM211 -10q-70 0 -119.5 41t-49.5 110q0 70 47 108q46 36 135 44q27 3 41.5 4.5t39 6.5t38 12t24 19.5t10.5 28.5q0 37 -31.5 58.5t-78.5 21.5q-55 0 -88 -26.5t-39 -70.5l-79 -1q8 75 62.5 120.5t141.5 45.5q89 0 139 -46.5t50 -121.5v-344h-77 v70q-61 -80 -166 -80zM221 59q58 -1 106.5 35.5t49.5 106.5v67q-30 -27 -135 -36q-120 -10 -120 -88q0 -39 29 -61.5t70 -23.5z" glyph-name="amacron" horiz-adv-x="521" unicode="ā"/><glyph d="M341 748q-76 0 -121.5 46t-46.5 116h61q1 -45 28.5 -76t78.5 -31q51 1 79.5 32t29.5 75h60q-1 -70 -47 -116t-122 -46zM120 0l-88 1l267 699h83l269 -700h-88l-72 189h-301zM215 264h252l-126 345z" glyph-name="Abreve" horiz-adv-x="683" unicode="Ă"/><glyph d="M262 553q-76 0 -121.5 46t-46.5 116h61q1 -45 28.5 -76t78.5 -31q51 1 79.5 32t29.5 75h60q-1 -70 -47 -116t-122 -46zM211 -10q-70 0 -119.5 41t-49.5 110q0 70 47 108q46 36 135 44q27 3 41.5 4.5t39 6.5t38 12t24 19.5t10.5 28.5q0 37 -31.5 58.5t-78.5 21.5 q-55 0 -88 -26.5t-39 -70.5l-79 -1q8 75 62.5 120.5t141.5 45.5q89 0 139 -46.5t50 -121.5v-344h-77v70q-61 -80 -166 -80zM221 59q58 -1 106.5 35.5t49.5 106.5v67q-30 -27 -135 -36q-120 -10 -120 -88q0 -39 29 -61.5t70 -23.5z" glyph-name="abreve" horiz-adv-x="521" unicode="ă"/><glyph d="M680 -161l32 -45q-56 -56 -139 -54q-53 2 -86 30t-33 78q0 92 114 152h-5l-72 189h-301l-70 -189l-88 1l267 699h83l268 -698l7 -2q-54 -11 -94.5 -54t-40.5 -90q0 -29 16.5 -46.5t47.5 -17.5q57 0 94 47zM215 264h252l-126 345z" glyph-name="Aogonek" horiz-adv-x="600" unicode="Ą"/><glyph d="M480 -161l32 -45q-56 -56 -140 -54q-53 2 -85.5 30t-32.5 78q0 93 123 155v67q-61 -80 -166 -80q-70 0 -119.5 41t-49.5 110q0 70 47 108q46 36 135 44q27 3 41.5 4.5t39 6.5t38 12t24 19.5t10.5 28.5q0 37 -31.5 58.5t-78.5 21.5q-55 0 -88 -26.5t-39 -70.5l-79 -1 q8 75 62.5 120.5t141.5 45.5q89 0 139 -46.5t50 -121.5v-343l2 -1q-54 -11 -94.5 -54t-40.5 -90q0 -29 17 -46.5t48 -17.5q57 0 94 47zM221 59q58 -1 106.5 35.5t49.5 106.5v67q-30 -27 -135 -36q-120 -10 -120 -88q0 -39 29 -61.5t70 -23.5z" glyph-name="aogonek" horiz-adv-x="521" unicode="ą"/><glyph d="M394 754h-78l103 124h97zM369 -6q-137 0 -227 99t-90 253q0 159 90.5 259.5t232.5 100.5q116 0 195 -66.5t95 -169.5h-84q-16 68 -72.5 114t-134.5 46q-105 0 -170.5 -80t-65.5 -205q0 -120 64.5 -196.5t167.5 -76.5q80 0 138 46.5t73 113.5h84q-18 -104 -98 -171 t-198 -67z" glyph-name="Cacute" horiz-adv-x="712" unicode="Ć"/><glyph d="M294 551h-78l103 124h97zM270 -7q-99 0 -163.5 71.5t-64.5 185.5q0 116 64.5 188t167.5 72q82 0 140 -48.5t68 -124.5h-76q-10 46 -46.5 76t-85.5 30q-67 0 -109.5 -52.5t-42.5 -139.5q0 -85 42 -137t109 -52q51 0 88 30.5t45 76.5h76q-10 -77 -69 -126.5t-143 -49.5z " glyph-name="cacute" horiz-adv-x="524" unicode="ć"/><glyph d="M307 878h103l103 -128h-85l-69 83l-69 -83h-85zM369 -6q-137 0 -227 99t-90 253q0 159 90.5 259.5t232.5 100.5q116 0 195 -66.5t95 -169.5h-84q-16 68 -72.5 114t-134.5 46q-105 0 -170.5 -80t-65.5 -205q0 -120 64.5 -196.5t167.5 -76.5q80 0 138 46.5t73 113.5h84 q-18 -104 -98 -171t-198 -67z" glyph-name="Ccircumflex" horiz-adv-x="712" unicode="Ĉ"/><glyph d="M206 675h103l103 -128h-85l-69 83l-69 -83h-85zM270 -7q-99 0 -163.5 71.5t-64.5 185.5q0 116 64.5 188t167.5 72q82 0 140 -48.5t68 -124.5h-76q-10 46 -46.5 76t-85.5 30q-67 0 -109.5 -52.5t-42.5 -139.5q0 -85 42 -137t109 -52q51 0 88 30.5t45 76.5h76 q-10 -77 -69 -126.5t-143 -49.5z" glyph-name="ccircumflex" horiz-adv-x="524" unicode="ĉ"/><glyph d="M312 766v102h97v-102h-97zM369 -6q-137 0 -227 99t-90 253q0 159 90.5 259.5t232.5 100.5q116 0 195 -66.5t95 -169.5h-84q-16 68 -72.5 114t-134.5 46q-105 0 -170.5 -80t-65.5 -205q0 -120 64.5 -196.5t167.5 -76.5q80 0 138 46.5t73 113.5h84q-18 -104 -98 -171 t-198 -67z" glyph-name="Cdotaccent" horiz-adv-x="712" unicode="Ċ"/><glyph d="M211 563v102h97v-102h-97zM270 -7q-99 0 -163.5 71.5t-64.5 185.5q0 116 64.5 188t167.5 72q82 0 140 -48.5t68 -124.5h-76q-10 46 -46.5 76t-85.5 30q-67 0 -109.5 -52.5t-42.5 -139.5q0 -85 42 -137t109 -52q51 0 88 30.5t45 76.5h76q-10 -77 -69 -126.5t-143 -49.5z " glyph-name="cdotaccent" horiz-adv-x="524" unicode="ċ"/><glyph d="M206 881h84l70 -83l71 83h83l-103 -128h-103zM369 -6q-137 0 -227 99t-90 253q0 159 90.5 259.5t232.5 100.5q116 0 195 -66.5t95 -169.5h-84q-16 68 -72.5 114t-134.5 46q-105 0 -170.5 -80t-65.5 -205q0 -120 64.5 -196.5t167.5 -76.5q80 0 138 46.5t73 113.5h84 q-18 -104 -98 -171t-198 -67z" glyph-name="Ccaron" horiz-adv-x="712" unicode="Č"/><glyph d="M106 678h84l70 -83l71 83h83l-103 -128h-103zM270 -7q-99 0 -163.5 71.5t-64.5 185.5q0 116 64.5 188t167.5 72q82 0 140 -48.5t68 -124.5h-76q-10 46 -46.5 76t-85.5 30q-67 0 -109.5 -52.5t-42.5 -139.5q0 -85 42 -137t109 -52q51 0 88 30.5t45 76.5h76 q-10 -77 -69 -126.5t-143 -49.5z" glyph-name="ccaron" horiz-adv-x="524" unicode="č"/><glyph d="M202 878h84l70 -83l71 83h83l-103 -128h-103zM87 -2v702l255 2q144 1 232.5 -95.5t88.5 -251.5q0 -158 -86 -256.5t-225 -98.5zM163 73l173 2q112 1 180.5 76.5t68.5 199.5t-67 200t-177 74l-178 -2v-550z" glyph-name="Dcaron" horiz-adv-x="715" unicode="Ď"/><glyph d="M268 -11q-94 0 -160 71t-66 187t64.5 187t158.5 71q57 0 102.5 -25.5t68.5 -64.5v285h73v-700h-73v80q-20 -38 -66 -64.5t-102 -26.5zM90 700h84l70 -83l71 83h83l-103 -128h-103zM277 61q72 0 116.5 51t44.5 131q0 84 -44.5 137.5t-116.5 53.5q-70 0 -112 -51.5 t-42 -132.5q0 -83 42 -136t112 -53z" glyph-name="dcaron" horiz-adv-x="586" unicode="ď"/><glyph d="M383 702q144 1 232.5 -95.5t88.5 -251.5q0 -158 -86 -256.5t-225 -98.5l-265 -2v320h-64v67h64v315zM377 75q112 1 180.5 76.5t68.5 199.5t-67 200t-177 74l-178 -2v-238h173v-67h-173v-245z" glyph-name="Dcroat" horiz-adv-x="791" unicode="Đ"/><glyph d="M156 765v62h310v-62h-310zM87 0v700h441v-75h-364v-234h343v-73h-343v-243h364v-75h-441z" glyph-name="Emacron" horiz-adv-x="570" unicode="Ē"/><glyph d="M118 567v62h310v-62h-310zM274 -11q-104 0 -168 70t-64 187q0 116 63 188t168 72q106 0 165 -77t56 -199h-373v-1q0 -79 42 -125t113 -46q46 0 85.5 27t52.5 75h72q-11 -75 -69 -123t-143 -48zM124 297h289q-7 66 -42 103.5t-100 37.5q-64 0 -102 -38.5t-45 -102.5z" glyph-name="emacron" horiz-adv-x="536" unicode="ē"/><glyph d="M308 748q-76 0 -121.5 46t-46.5 116h61q1 -45 28.5 -76t78.5 -31q51 1 79.5 32t29.5 75h60q-1 -70 -47 -116t-122 -46zM87 0v700h441v-75h-364v-234h343v-73h-343v-243h364v-75h-441z" glyph-name="Ebreve" horiz-adv-x="570" unicode="Ĕ"/><glyph d="M270 550q-76 0 -121.5 46t-46.5 116h61q1 -45 28.5 -76t78.5 -31q51 1 79.5 32t29.5 75h60q-1 -70 -47 -116t-122 -46zM274 -11q-104 0 -168 70t-64 187q0 116 63 188t168 72q106 0 165 -77t56 -199h-373v-1q0 -79 42 -125t113 -46q46 0 85.5 27t52.5 75h72 q-11 -75 -69 -123t-143 -48zM124 297h289q-7 66 -42 103.5t-100 37.5q-64 0 -102 -38.5t-45 -102.5z" glyph-name="ebreve" horiz-adv-x="536" unicode="ĕ"/><glyph d="M257 763v102h97v-102h-97zM87 0v700h441v-75h-364v-234h343v-73h-343v-243h364v-75h-441z" glyph-name="Edotaccent" horiz-adv-x="570" unicode="Ė"/><glyph d="M219 565v102h97v-102h-97zM274 -11q-104 0 -168 70t-64 187q0 116 63 188t168 72q106 0 165 -77t56 -199h-373v-1q0 -79 42 -125t113 -46q46 0 85.5 27t52.5 75h72q-11 -75 -69 -123t-143 -48zM124 297h289q-7 66 -42 103.5t-100 37.5q-64 0 -102 -38.5t-45 -102.5z" glyph-name="edotaccent" horiz-adv-x="536" unicode="ė"/><glyph d="M551 -160l32 -45q-56 -56 -140 -54q-53 2 -85.5 30t-32.5 78q0 91 116 151h-354v700h441v-75h-364v-234h343v-73h-343v-243h364v-75h-6q-53 -12 -91.5 -54.5t-38.5 -88.5q0 -29 17 -46.5t48 -17.5q57 0 94 47z" glyph-name="Eogonek" horiz-adv-x="570" unicode="Ę"/><glyph d="M494 230h-373v-1q0 -79 42 -125t113 -46q46 0 85.5 27t52.5 75h72q-10 -69 -59.5 -115.5t-124.5 -53.5q-48 -17 -81 -57t-33 -82q0 -29 17 -46.5t48 -17.5q57 0 94 47l32 -45q-56 -56 -140 -54q-53 2 -85.5 30t-32.5 78q0 89 111 148q-87 14 -138.5 82t-51.5 172 q0 116 63 188t168 72q106 0 165 -77t56 -199zM271 438q-64 0 -102 -38.5t-45 -102.5h289q-7 66 -42 103.5t-100 37.5z" glyph-name="eogonek" horiz-adv-x="536" unicode="ę"/><glyph d="M152 878h84l70 -83l71 83h83l-103 -128h-103zM87 0v700h441v-75h-364v-234h343v-73h-343v-243h364v-75h-441z" glyph-name="Ecaron" horiz-adv-x="570" unicode="Ě"/><glyph d="M114 680h84l70 -83l71 83h83l-103 -128h-103zM274 -11q-104 0 -168 70t-64 187q0 116 63 188t168 72q106 0 165 -77t56 -199h-373v-1q0 -79 42 -125t113 -46q46 0 85.5 27t52.5 75h72q-11 -75 -69 -123t-143 -48zM124 297h289q-7 66 -42 103.5t-100 37.5 q-64 0 -102 -38.5t-45 -102.5z" glyph-name="ecaron" horiz-adv-x="536" unicode="ě"/><glyph d="M324 875h103l103 -128h-85l-69 83l-69 -83h-85zM373 -6q-138 0 -229.5 99t-91.5 253q0 159 93 260t235 101q115 0 196.5 -67t96.5 -170h-84q-11 68 -71 115t-139 47q-105 0 -174 -81.5t-69 -205.5q0 -119 68.5 -197t171.5 -77q77 0 144.5 52.5t78.5 153.5h-211v76l289 -1 v-352l-71 -1l-3 123q-37 -63 -99 -95.5t-131 -32.5z" glyph-name="Gcircumflex" horiz-adv-x="759" unicode="Ĝ"/><glyph d="M234 680h103l103 -128h-85l-69 83l-69 -83h-85zM275 -207q-93 0 -152 48t-63 123h76q6 -38 32 -63t53 -33t55 -8q75 0 119.5 44t44.5 133v58q-23 -45 -72 -72.5t-105 -27.5q-99 0 -160 72.5t-61 185.5q0 112 63 185t161 73q54 0 102 -27t72 -71v87h74v-463 q0 -120 -65.5 -182t-173.5 -62zM277 66q72 0 116.5 53.5t44.5 137.5q0 80 -44.5 131t-116.5 51q-69 0 -111.5 -53t-42.5 -136q0 -81 42.5 -132.5t111.5 -51.5z" glyph-name="gcircumflex" horiz-adv-x="586" unicode="ĝ"/><glyph d="M380 748q-76 0 -121.5 46t-46.5 116h61q1 -45 28.5 -76t78.5 -31q51 1 79.5 32t29.5 75h60q-1 -70 -47 -116t-122 -46zM373 -6q-138 0 -229.5 99t-91.5 253q0 159 93 260t235 101q115 0 196.5 -67t96.5 -170h-84q-11 68 -71 115t-139 47q-105 0 -174 -81.5t-69 -205.5 q0 -119 68.5 -197t171.5 -77q77 0 144.5 52.5t78.5 153.5h-211v76l289 -1v-352l-71 -1l-3 123q-37 -63 -99 -95.5t-131 -32.5z" glyph-name="Gbreve" horiz-adv-x="759" unicode="Ğ"/><glyph d="M290 553q-76 0 -121.5 46t-46.5 116h61q1 -45 28.5 -76t78.5 -31q51 1 79.5 32t29.5 75h60q-1 -70 -47 -116t-122 -46zM275 -207q-93 0 -152 48t-63 123h76q6 -38 32 -63t53 -33t55 -8q75 0 119.5 44t44.5 133v58q-23 -45 -72 -72.5t-105 -27.5q-99 0 -160 72.5 t-61 185.5q0 112 63 185t161 73q54 0 102 -27t72 -71v87h74v-463q0 -120 -65.5 -182t-173.5 -62zM277 66q72 0 116.5 53.5t44.5 137.5q0 80 -44.5 131t-116.5 51q-69 0 -111.5 -53t-42.5 -136q0 -81 42.5 -132.5t111.5 -51.5z" glyph-name="gbreve" horiz-adv-x="586" unicode="ğ"/><glyph d="M329 763v102h97v-102h-97zM373 -6q-138 0 -229.5 99t-91.5 253q0 159 93 260t235 101q115 0 196.5 -67t96.5 -170h-84q-11 68 -71 115t-139 47q-105 0 -174 -81.5t-69 -205.5q0 -119 68.5 -197t171.5 -77q77 0 144.5 52.5t78.5 153.5h-211v76l289 -1v-352l-71 -1l-3 123 q-37 -63 -99 -95.5t-131 -32.5z" glyph-name="Gdotaccent" horiz-adv-x="759" unicode="Ġ"/><glyph d="M239 568v102h97v-102h-97zM275 -207q-93 0 -152 48t-63 123h76q6 -38 32 -63t53 -33t55 -8q75 0 119.5 44t44.5 133v58q-23 -45 -72 -72.5t-105 -27.5q-99 0 -160 72.5t-61 185.5q0 112 63 185t161 73q54 0 102 -27t72 -71v87h74v-463q0 -120 -65.5 -182t-173.5 -62z M277 66q72 0 116.5 53.5t44.5 137.5q0 80 -44.5 131t-116.5 51q-69 0 -111.5 -53t-42.5 -136q0 -81 42.5 -132.5t111.5 -51.5z" glyph-name="gdotaccent" horiz-adv-x="586" unicode="ġ"/><glyph d="M373 -6q-138 0 -229.5 99t-91.5 253q0 159 93 260t235 101q115 0 196.5 -67t96.5 -170h-84q-11 68 -71 115t-139 47q-105 0 -174 -81.5t-69 -205.5q0 -119 68.5 -197t171.5 -77q77 0 144.5 52.5t78.5 153.5h-211v76l289 -1v-352l-71 -1l-3 123q-37 -63 -99 -95.5 t-131 -32.5zM336 -267v47q49 2 46 55h-50v102h96v-102q0 -50 -25 -76t-67 -26z" glyph-name="Gcommaaccent" horiz-adv-x="759" unicode="Ģ"/><glyph d="M275 -207q-93 0 -152 48t-63 123h76q6 -38 32 -63t53 -33t55 -8q75 0 119.5 44t44.5 133v58q-23 -45 -72 -72.5t-105 -27.5q-99 0 -160 72.5t-61 185.5q0 112 63 185t161 73q54 0 102 -27t72 -71v87h74v-463q0 -120 -65.5 -182t-173.5 -62zM277 66q72 0 116.5 53.5 t44.5 137.5q0 80 -44.5 131t-116.5 51q-69 0 -111.5 -53t-42.5 -136q0 -81 42.5 -132.5t111.5 -51.5zM250 -467v47q49 2 46 55h-50v102h96v-102q0 -50 -25 -76t-67 -26z" glyph-name="gcommaaccent" horiz-adv-x="586" unicode="ģ"/><glyph d="M295 875h103l103 -128h-85l-69 83l-69 -83h-85zM87 0v700h81v-308h365v308h81v-700h-81v322h-365v-322h-81z" glyph-name="Hcircumflex" horiz-adv-x="701" unicode="Ĥ"/><glyph d="M254 824h103l103 -128h-85l-69 83l-69 -83h-85zM77 0v700h75v-268q21 33 62 57t94 24q78 0 132 -53.5t54 -152.5v-307h-79v302q0 64 -33 104t-86 40q-64 0 -103.5 -48t-40.5 -129v-269h-75z" glyph-name="hcircumflex" unicode="ĥ"/><glyph d="M659 593v-70h-45v-523h-81v322h-365v-322h-81v523h-44v70h44v107h81v-107h365v107h81v-107h45zM533 392v131h-365v-131h365z" glyph-name="Hbar" horiz-adv-x="755" unicode="Ħ"/><glyph d="M371 513q78 0 132 -53.5t54 -152.5v-307h-79v302q0 64 -33 104t-86 40q-64 0 -103.5 -48t-40.5 -129v-269h-75v574h-63v59h63v67h75v-67h120v-59h-120v-142q21 33 62 57t94 24z" glyph-name="hbar" horiz-adv-x="629" unicode="ħ"/><glyph d="M201 745q-58 0 -94 55q-18 28 -42 28q-18 0 -29 -13.5t-11 -35.5q0 -16 3 -25h-60q-3 12 -3 23q-1 48 26.5 79t70.5 31q58 0 95 -55q16 -28 42 -28q20 0 30.5 16t8.5 42q0 5 -2 15h60q1 -5 1 -16q5 -50 -22.5 -83t-73.5 -33zM92 0v700h79v-700h-79z" glyph-name="Itilde" horiz-adv-x="263" unicode="Ĩ"/><glyph d="M204 545q-58 0 -94 55q-18 28 -42 28q-18 0 -28.5 -13.5t-11.5 -35.5q0 -11 3 -25h-60q-2 8 -2 23q-1 49 26 79.5t70 30.5q60 0 95 -55q16 -28 43 -28q19 0 30 16t9 42l-3 15h60q1 -5 1 -16q5 -50 -22.5 -83t-73.5 -33zM96 0v500h78v-500h-78z" glyph-name="itilde" horiz-adv-x="286" unicode="ĩ"/><glyph d="M-28 765v62h310v-62h-310zM84 0v700h79v-700h-79z" glyph-name="Imacron" horiz-adv-x="241" unicode="Ī"/><glyph d="M-26 565v62h310v-62h-310zM87 0v500h78v-500h-78z" glyph-name="imacron" horiz-adv-x="268" unicode="ī"/><glyph d="M116 748q-76 0 -121.5 46t-46.5 116h61q1 -45 28.5 -76t78.5 -31q51 1 79.5 32t28.5 75h61q-1 -70 -47 -116t-122 -46zM76 0v700h79v-700h-79z" glyph-name="Ibreve" horiz-adv-x="227" unicode="Ĭ"/><glyph d="M145 548q-76 0 -121.5 46t-46.5 116h61q1 -45 28.5 -76t78.5 -31q51 1 79.5 32t29.5 75h60q-1 -70 -47 -116t-122 -46zM106 0v500h78v-500h-78z" glyph-name="ibreve" horiz-adv-x="298" unicode="ĭ"/><glyph d="M181 -161l32 -46q-58 -56 -140 -53q-53 2 -85.5 30t-32.5 77q0 94 123 155v698h79v-700q-54 -11 -94.5 -54t-40.5 -90q0 -29 17 -46.5t48 -17.5q57 0 94 47z" glyph-name="Iogonek" horiz-adv-x="232" unicode="Į"/><glyph d="M159 700v-95h-87v95h87zM178 -161l32 -45q-56 -56 -140 -54q-53 2 -85.5 30t-32.5 78q0 94 125 156v496h77v-500q-54 -11 -94.5 -54t-40.5 -90q0 -29 17 -46.5t48 -17.5q57 0 94 47z" glyph-name="iogonek" horiz-adv-x="231" unicode="į"/><glyph d="M81 763v102h97v-102h-97zM92 0v700h79v-700h-79z" glyph-name="Idotaccent" horiz-adv-x="263" unicode="İ"/><glyph d="M72 0v500h78v-500h-78z" glyph-name="dotlessi" horiz-adv-x="222" unicode="ı"/><glyph d="M339 858h103l103 -128h-85l-69 83l-69 -83h-85zM228 -8q-92 0 -148.5 56t-57.5 149v55h75v-53q1 -61 37 -97.5t93 -36.5q59 0 94 38.5t35 107.5v489h79v-491q0 -100 -57.5 -158.5t-149.5 -58.5z" glyph-name="Jcircumflex" horiz-adv-x="512" unicode="Ĵ"/><glyph d="M108 669h103l102 -128h-84l-69 83l-69 -83h-85zM37 -177v73h21q30 0 48.5 19t18.5 56v529h75v-537q0 -66 -37 -103t-97 -37h-29z" glyph-name="jcircumflex" horiz-adv-x="309" unicode="ĵ"/><glyph d="M87 0v700h75v-356l331 356l99 1l-287 -310l293 -391h-99l-248 335l-89 -96v-239h-75zM264 -267v47q49 2 46 55h-50v102h96v-102q0 -50 -25 -76t-67 -26z" glyph-name="Kcommaaccent" horiz-adv-x="615" unicode="Ķ"/><glyph d="M77 0v700h75v-433l220 233h94l-186 -196l206 -304l-87 1l-169 247l-78 -82v-166h-75zM210 -267v47q49 2 46 55h-50v102h96v-102q0 -50 -25 -76t-67 -26z" glyph-name="kcommaaccent" horiz-adv-x="508" unicode="ķ"/><glyph d="M162 751h-78l103 124h97zM87 0v700h81v-624h317v-76h-398z" glyph-name="Lacute" horiz-adv-x="512" unicode="Ĺ"/><glyph d="M148 791h-78l103 124h97zM77 0v700h78v-700h-78z" glyph-name="lacute" horiz-adv-x="232" unicode="ĺ"/><glyph d="M87 0v700h81v-624h317v-76h-398zM212 -267v47q49 2 46 55h-50v102h96v-102q0 -50 -25 -76t-67 -26z" glyph-name="Lcommaaccent" horiz-adv-x="512" unicode="Ļ"/><glyph d="M77 0v700h78v-700h-78zM72 -267v47q49 2 46 55h-50v102h96v-102q0 -50 -25 -76t-67 -26z" glyph-name="lcommaaccent" horiz-adv-x="232" unicode="ļ"/><glyph d="M-26 878h84l70 -83l71 83h83l-103 -128h-103zM87 0v700h81v-624h317v-76h-398z" glyph-name="Lcaron" horiz-adv-x="512" unicode="Ľ"/><glyph d="M-40 918h84l70 -83l71 83h83l-103 -128h-103zM77 0v700h78v-700h-78z" glyph-name="lcaron" horiz-adv-x="232" unicode="ľ"/><glyph d="M77 759v102h96v-102h-96zM87 0v700h81v-624h317v-76h-398z" glyph-name="Ldot" horiz-adv-x="512" unicode="Ŀ"/><glyph d="M68 741v102h96v-102h-96zM77 0v700h78v-700h-78z" glyph-name="ldot" horiz-adv-x="241" unicode="ŀ"/><glyph d="M168 76h317v-76h-398v299l-86 -43v70l86 43v331h81v-290l156 79v-70l-156 -79v-264z" glyph-name="Lslash" horiz-adv-x="529" unicode="Ł"/><glyph d="M238 490v-68l-83 -35v-387h-78v354l-64 -27v68l64 27v278h78v-245z" glyph-name="lslash" horiz-adv-x="273" unicode="ł"/><glyph d="M389 751h-78l103 124h97zM531 -1l-369 585v-584h-75v700h93l373 -591v590h75v-700h-97z" glyph-name="Nacute" horiz-adv-x="715" unicode="Ń"/><glyph d="M319 555h-78l103 124h97zM77 0v500h75v-68q21 33 62 57t94 24q78 0 132 -53.5t54 -152.5v-307h-79v302q0 67 -33 105.5t-86 38.5q-61 0 -102 -48.5t-42 -128.5v-269h-75z" glyph-name="nacute" unicode="ń"/><glyph d="M531 -1l-369 585v-584h-75v700h93l373 -591v590h75v-700h-97zM314 -267v47q49 2 46 55h-50v102h96v-102q0 -50 -25 -76t-67 -26z" glyph-name="Ncommaaccent" horiz-adv-x="715" unicode="Ņ"/><glyph d="M77 0v500h75v-68q21 33 62 57t94 24q78 0 132 -53.5t54 -152.5v-307h-79v302q0 67 -33 105.5t-86 38.5q-61 0 -102 -48.5t-42 -128.5v-269h-75zM239 -267v47q49 2 46 55h-50v102h96v-102q0 -50 -25 -76t-67 -26z" glyph-name="ncommaaccent" unicode="ņ"/><glyph d="M202 878h84l70 -83l71 83h83l-103 -128h-103zM531 -1l-369 585v-584h-75v700h93l373 -591v590h75v-700h-97z" glyph-name="Ncaron" horiz-adv-x="715" unicode="Ň"/><glyph d="M131 682h84l70 -83l71 83h83l-103 -128h-103zM77 0v500h75v-68q21 33 62 57t94 24q78 0 132 -53.5t54 -152.5v-307h-79v302q0 67 -33 105.5t-86 38.5q-61 0 -102 -48.5t-42 -128.5v-269h-75z" glyph-name="ncaron" unicode="ň"/><glyph d="M553 699h75v-700q-1 -93 -45.5 -140t-127.5 -47v72q31 0 59 20.5t27 55.5q-1 17 -10 39l-369 585v-584h-75v700h93l373 -591v590z" glyph-name="Eng" horiz-adv-x="715" unicode="Ŋ"/><glyph d="M308 513q78 0 132 -53.5t54 -152.5v-307q0 -166 -148 -166v75q38 0 54.5 21t14.5 70v302q0 67 -33 105.5t-86 38.5q-61 0 -102 -48.5t-42 -128.5v-269h-75v500h75v-68q21 33 62 57t94 24z" glyph-name="eng" unicode="ŋ"/><glyph d="M226 765v62h310v-62h-310zM378 -10q-139 0 -232.5 103.5t-93.5 256.5q0 154 92.5 256t233.5 102t233.5 -102.5t92.5 -257.5q0 -152 -93.5 -255t-232.5 -103zM376 66q109 0 179 80t70 198q0 124 -69 206.5t-178 82.5q-108 0 -176.5 -82t-68.5 -205q0 -119 68.5 -199.5 t174.5 -80.5z" glyph-name="Omacron" horiz-adv-x="756" unicode="Ō"/><glyph d="M126 565v62h310v-62h-310zM278 -5q-102 0 -169 72t-67 183q0 113 67 185t169 72q105 0 170 -71.5t65 -185.5q0 -111 -66.5 -183t-168.5 -72zM276 66q74 0 118.5 51t44.5 131q0 84 -42.5 136t-118.5 52q-71 0 -115.5 -52t-44.5 -134q0 -81 43.5 -132.5t114.5 -51.5z" glyph-name="omacron" horiz-adv-x="555" unicode="ō"/><glyph d="M378 748q-76 0 -121.5 46t-46.5 116h61q1 -45 28.5 -76t78.5 -31q51 1 79.5 32t29.5 75h60q-1 -70 -47 -116t-122 -46zM378 -10q-139 0 -232.5 103.5t-93.5 256.5q0 154 92.5 256t233.5 102t233.5 -102.5t92.5 -257.5q0 -152 -93.5 -255t-232.5 -103zM376 66 q109 0 179 80t70 198q0 124 -69 206.5t-178 82.5q-108 0 -176.5 -82t-68.5 -205q0 -119 68.5 -199.5t174.5 -80.5z" glyph-name="Obreve" horiz-adv-x="756" unicode="Ŏ"/><glyph d="M278 548q-76 0 -121.5 46t-46.5 116h61q1 -45 28.5 -76t78.5 -31q51 1 79.5 32t29.5 75h60q-1 -70 -47 -116t-122 -46zM278 -5q-102 0 -169 72t-67 183q0 113 67 185t169 72q105 0 170 -71.5t65 -185.5q0 -111 -66.5 -183t-168.5 -72zM276 66q74 0 118.5 51t44.5 131 q0 84 -42.5 136t-118.5 52q-71 0 -115.5 -52t-44.5 -134q0 -81 43.5 -132.5t114.5 -51.5z" glyph-name="obreve" horiz-adv-x="555" unicode="ŏ"/><glyph d="M242 760v102h97v-102h-97zM412 760v102h96v-102h-96zM378 -10q-139 0 -232.5 103.5t-93.5 256.5q0 154 92.5 256t233.5 102t233.5 -102.5t92.5 -257.5q0 -152 -93.5 -255t-232.5 -103zM376 66q109 0 179 80t70 198q0 124 -69 206.5t-178 82.5q-108 0 -176.5 -82 t-68.5 -205q0 -119 68.5 -199.5t174.5 -80.5z" glyph-name="Ohungarumlaut" horiz-adv-x="756" unicode="Ő"/><glyph d="M142 560v102h97v-102h-97zM312 560v102h96v-102h-96zM278 -5q-102 0 -169 72t-67 183q0 113 67 185t169 72q105 0 170 -71.5t65 -185.5q0 -111 -66.5 -183t-168.5 -72zM276 66q74 0 118.5 51t44.5 131q0 84 -42.5 136t-118.5 52q-71 0 -115.5 -52t-44.5 -134 q0 -81 43.5 -132.5t114.5 -51.5z" glyph-name="ohungarumlaut" horiz-adv-x="555" unicode="ő"/><glyph d="M1076 625h-364v-234h343v-73h-343v-243h364v-75h-441v123q-45 -63 -111.5 -98t-145.5 -35q-139 0 -232.5 103.5t-93.5 256.5q0 154 92.5 256t233.5 102q80 0 146.5 -35t110.5 -97v124h441v-75zM376 66q109 0 179 80t70 198q0 124 -69 206.5t-178 82.5q-108 0 -176.5 -82 t-68.5 -205q0 -119 68.5 -199.5t174.5 -80.5z" glyph-name="OE" horiz-adv-x="1118" unicode="Œ"/><glyph d="M908 230h-372v-1q0 -79 41.5 -125t112.5 -46q47 0 86 27t53 75h71q-10 -75 -68.5 -123t-143.5 -48q-71 0 -124.5 33.5t-81.5 94.5q-30 -57 -83.5 -89.5t-120.5 -32.5q-102 0 -169 72t-67 183q0 113 67 185t169 72q70 0 123.5 -33t82.5 -91q58 123 204 123 q109 0 166.5 -76.5t53.5 -199.5zM685 438q-63 0 -101 -38.5t-45 -102.5h288q-6 66 -41 103.5t-101 37.5zM276 66q74 0 118.5 51t44.5 131q0 84 -42.5 136t-118.5 52q-71 0 -115.5 -52t-44.5 -134q0 -81 43.5 -132.5t114.5 -51.5z" glyph-name="oe" horiz-adv-x="951" unicode="œ"/><glyph d="M358 751h-78l103 124h97zM87 -1v701l281 1q96 1 150.5 -50.5t54.5 -137.5q0 -57 -31.5 -102t-78.5 -60q51 -16 70 -56t24 -115q1 -14 3 -41t2.5 -35t2.5 -26t3.5 -24t4 -17.5t6 -19.5t8.5 -17h-87q-4 10 -7 20t-5 26t-2.5 25.5t-2.5 38.5t-3 45q-6 83 -19 109 q-27 54 -117 54h-180v-319h-77zM164 386h193q61 0 101 33.5t40 89.5q0 60 -37 91.5t-104 31.5h-192z" glyph-name="Racute" horiz-adv-x="652" unicode="Ŕ"/><glyph d="M199 551h-78l103 124h97zM77 0v500h74v-68q12 29 50 54t107 22l9 -1v-75l-7 -1q-159 6 -159 -152v-279h-74z" glyph-name="racute" horiz-adv-x="335" unicode="ŕ"/><glyph d="M87 -1v701l281 1q96 1 150.5 -50.5t54.5 -137.5q0 -57 -31.5 -102t-78.5 -60q51 -16 70 -56t24 -115q1 -14 3 -41t2.5 -35t2.5 -26t3.5 -24t4 -17.5t6 -19.5t8.5 -17h-87q-4 10 -7 20t-5 26t-2.5 25.5t-2.5 38.5t-3 45q-6 83 -19 109q-27 54 -117 54h-180v-319h-77z M164 386h193q61 0 101 33.5t40 89.5q0 60 -37 91.5t-104 31.5h-192zM282 -267v47q49 2 46 55h-50v102h96v-102q0 -50 -25 -76t-67 -26z" glyph-name="Rcommaaccent" horiz-adv-x="652" unicode="Ŗ"/><glyph d="M77 0v500h74v-68q12 29 50 54t107 22l9 -1v-75l-7 -1q-159 6 -159 -152v-279h-74zM71 -267v47q49 2 46 55h-50v102h96v-102q0 -50 -25 -76t-67 -26z" glyph-name="rcommaaccent" horiz-adv-x="335" unicode="ŗ"/><glyph d="M170 878h84l70 -83l71 83h83l-103 -128h-103zM87 -1v701l281 1q96 1 150.5 -50.5t54.5 -137.5q0 -57 -31.5 -102t-78.5 -60q51 -16 70 -56t24 -115q1 -14 3 -41t2.5 -35t2.5 -26t3.5 -24t4 -17.5t6 -19.5t8.5 -17h-87q-4 10 -7 20t-5 26t-2.5 25.5t-2.5 38.5t-3 45 q-6 83 -19 109q-27 54 -117 54h-180v-319h-77zM164 386h193q61 0 101 33.5t40 89.5q0 60 -37 91.5t-104 31.5h-192z" glyph-name="Rcaron" horiz-adv-x="652" unicode="Ř"/><glyph d="M12 678h84l70 -83l71 83h83l-103 -128h-103zM77 0v500h74v-68q12 29 50 54t107 22l9 -1v-75l-7 -1q-159 6 -159 -152v-279h-74z" glyph-name="rcaron" horiz-adv-x="335" unicode="ř"/><glyph d="M345 751h-78l103 124h97zM328 -7q-112 0 -192.5 58t-88.5 165h88q11 -71 63 -110.5t136 -39.5q75 0 118.5 36t43.5 93q0 52 -37.5 80.5t-126.5 42.5q-141 21 -203.5 70t-62.5 127q0 80 67.5 135.5t167.5 55.5q122 0 193 -59.5t72 -162.5h-82q-5 71 -52.5 109t-127.5 38 q-67 0 -110 -33.5t-43 -81.5q0 -94 176 -120q141 -21 197.5 -69t56.5 -133q0 -91 -70 -146t-183 -55z" glyph-name="Sacute" horiz-adv-x="628" unicode="Ś"/><glyph d="M267 551h-78l103 124h97zM246 -11q-85 0 -145 44.5t-64 126.5h76q6 -51 43.5 -78t92.5 -27q54 0 81 25.5t27 62.5q0 33 -26 51.5t-87 28.5q-104 17 -148 54t-44 93q0 58 50 98.5t125 40.5q83 0 139 -43t57 -127h-72q-7 103 -121 103q-43 0 -72.5 -20t-29.5 -52 q0 -62 115 -80q104 -15 147.5 -49.5t43.5 -99.5q0 -66 -52.5 -109t-135.5 -43z" glyph-name="sacute" horiz-adv-x="471" unicode="ś"/><glyph d="M258 875h103l103 -128h-85l-69 83l-69 -83h-85zM328 -7q-112 0 -192.5 58t-88.5 165h88q11 -71 63 -110.5t136 -39.5q75 0 118.5 36t43.5 93q0 52 -37.5 80.5t-126.5 42.5q-141 21 -203.5 70t-62.5 127q0 80 67.5 135.5t167.5 55.5q122 0 193 -59.5t72 -162.5h-82 q-5 71 -52.5 109t-127.5 38q-67 0 -110 -33.5t-43 -81.5q0 -94 176 -120q141 -21 197.5 -69t56.5 -133q0 -91 -70 -146t-183 -55z" glyph-name="Scircumflex" horiz-adv-x="628" unicode="Ŝ"/><glyph d="M180 675h103l103 -128h-85l-69 83l-69 -83h-85zM246 -11q-85 0 -145 44.5t-64 126.5h76q6 -51 43.5 -78t92.5 -27q54 0 81 25.5t27 62.5q0 33 -26 51.5t-87 28.5q-104 17 -148 54t-44 93q0 58 50 98.5t125 40.5q83 0 139 -43t57 -127h-72q-7 103 -121 103 q-43 0 -72.5 -20t-29.5 -52q0 -62 115 -80q104 -15 147.5 -49.5t43.5 -99.5q0 -66 -52.5 -109t-135.5 -43z" glyph-name="scircumflex" horiz-adv-x="471" unicode="ŝ"/><glyph d="M328 -7h-1l-16 -32q14 4 32 2q40 -2 66 -27.5t26 -64.5q0 -43 -30.5 -73.5t-73.5 -30.5q-34 0 -67.5 19t-47.5 46l44 19q10 -15 31 -25.5t40 -10.5q23 0 39 16.5t16 39.5q0 22 -13.5 35.5t-35.5 15.5q-21 3 -48 -8l-40 25l29 57q-95 13 -159.5 69.5t-71.5 150.5h88 q11 -71 63 -110.5t136 -39.5q75 0 118.5 36t43.5 93q0 52 -37.5 80.5t-126.5 42.5q-141 21 -203.5 70t-62.5 127q0 80 67.5 135.5t167.5 55.5q122 0 193 -59.5t72 -162.5h-82q-5 71 -52.5 109t-127.5 38q-67 0 -110 -33.5t-43 -81.5q0 -94 176 -120q141 -21 197.5 -69 t56.5 -133q0 -91 -70 -146t-183 -55z" glyph-name="Scedilla" horiz-adv-x="628" unicode="Ş"/><glyph d="M434 141q0 -65 -52 -108t-134 -44l-15 -30q18 3 33 2q39 -2 65 -27.5t26 -64.5q0 -43 -30.5 -73.5t-73.5 -30.5q-34 0 -67.5 19t-47.5 46l44 18q11 -15 31.5 -25t39.5 -10q23 0 39 16t16 40q0 21 -13.5 34.5t-35.5 15.5q-23 3 -48 -8l-40 26l29 56q-69 11 -114 54 t-49 113h76q6 -51 43.5 -78t92.5 -27q54 0 81 25.5t27 62.5q0 33 -26 51.5t-87 28.5q-104 17 -148 54t-44 93q0 58 50 98.5t125 40.5q83 0 139 -43t57 -127h-72q-7 103 -121 103q-43 0 -72.5 -20t-29.5 -52q0 -62 115 -80q104 -15 147.5 -49.5t43.5 -99.5z" glyph-name="scedilla" horiz-adv-x="471" unicode="ş"/><glyph d="M158 878h84l70 -83l71 83h83l-103 -128h-103zM328 -7q-112 0 -192.5 58t-88.5 165h88q11 -71 63 -110.5t136 -39.5q75 0 118.5 36t43.5 93q0 52 -37.5 80.5t-126.5 42.5q-141 21 -203.5 70t-62.5 127q0 80 67.5 135.5t167.5 55.5q122 0 193 -59.5t72 -162.5h-82 q-5 71 -52.5 109t-127.5 38q-67 0 -110 -33.5t-43 -81.5q0 -94 176 -120q141 -21 197.5 -69t56.5 -133q0 -91 -70 -146t-183 -55z" glyph-name="Scaron" horiz-adv-x="628" unicode="Š"/><glyph d="M80 678h84l70 -83l71 83h83l-103 -128h-103zM246 -11q-85 0 -145 44.5t-64 126.5h76q6 -51 43.5 -78t92.5 -27q54 0 81 25.5t27 62.5q0 33 -26 51.5t-87 28.5q-104 17 -148 54t-44 93q0 58 50 98.5t125 40.5q83 0 139 -43t57 -127h-72q-7 103 -121 103q-43 0 -72.5 -20 t-29.5 -52q0 -62 115 -80q104 -15 147.5 -49.5t43.5 -99.5q0 -66 -52.5 -109t-135.5 -43z" glyph-name="scaron" horiz-adv-x="471" unicode="š"/><glyph d="M590 627h-250v-611q2 0 6 -0.5t6 -0.5q40 -2 66 -27.5t26 -64.5q0 -43 -30 -73.5t-74 -30.5q-34 0 -67.5 19t-47.5 46l44 19q10 -15 31 -25.5t40 -10.5q23 0 39 16.5t16 39.5q0 22 -13.5 35.5t-35.5 15.5q-21 3 -48 -8l-40 25l5 10v626h-251v73h578v-73z" glyph-name="Tcommaaccent" horiz-adv-x="602" unicode="Ţ"/><glyph d="M186 -26q40 -2 65.5 -28t25.5 -65q0 -43 -29.5 -73t-73.5 -30q-34 0 -68 19t-48 46l45 18q11 -15 31.5 -25.5t39.5 -10.5q23 0 38.5 16.5t15.5 39.5q0 22 -13 35.5t-36 15.5q-23 3 -48 -8l-39 25l37 72q-51 35 -51 108v304h-76v67h76v147h75v-147h121v-67h-121v-293 q0 -70 62 -70h60v-70h-71q-20 0 -35 4l-16 -32q20 3 33 2z" glyph-name="tcommaaccent" horiz-adv-x="307" unicode="ţ"/><glyph d="M145 878h84l70 -83l71 83h83l-103 -128h-103zM263 0v627h-251v73h578v-73h-250v-627h-77z" glyph-name="Tcaron" horiz-adv-x="602" unicode="Ť"/><glyph d="M-38 825h84l70 -83l71 83h83l-103 -128h-103zM204 0q-57 0 -91.5 35t-34.5 94v304h-76v67h76v147h75v-147h121v-67h-121v-293q0 -70 62 -70h60v-70h-71z" glyph-name="tcaron" horiz-adv-x="297" unicode="ť"/><glyph d="M149 765v62h310v-62h-310zM263 0v627h-251v73h578v-73h-250v-627h-77z" glyph-name="Tbar" horiz-adv-x="602" unicode="Ŧ"/><glyph d="M283 312h-123v-172q0 -70 63 -70h60l-1 -70h-71q-57 0 -91 34.5t-34 94.5v183h-74v62h74v59h-76v67h76v147h74v-147h121v-67h-121v-59h123v-62z" glyph-name="tbar" horiz-adv-x="305" unicode="ŧ"/><glyph d="M418 745q-58 0 -94 55q-18 28 -42 28q-18 0 -29 -13.5t-11 -35.5q0 -16 3 -25h-60q-3 12 -3 23q-1 48 26.5 79t70.5 31q58 0 95 -55q16 -28 42 -28q20 0 30.5 16t8.5 42q0 5 -2 15h60q1 -5 1 -16q5 -50 -22.5 -83t-73.5 -33zM347 -8q-123 0 -196.5 72.5t-73.5 196.5v439 h78v-439q0 -92 52 -143.5t140 -51.5q87 0 139.5 51.5t52.5 143.5v439h77v-439q0 -124 -73.5 -196.5t-195.5 -72.5z" glyph-name="Utilde" horiz-adv-x="693" unicode="Ũ"/><glyph d="M352 545q-58 0 -94 55q-18 28 -42 28q-18 0 -29 -13.5t-11 -35.5q0 -16 3 -25h-60q-3 12 -3 23q-1 48 26.5 79t70.5 31q58 0 95 -55q16 -28 42 -28q20 0 30.5 16t8.5 42q0 5 -2 15h60q1 -5 1 -16q5 -50 -22.5 -83t-73.5 -33zM258 -13q-78 0 -132 53.5t-54 152.5v307h79 v-302q1 -64 34 -104t85 -40q65 0 104 48t40 129v269h75v-500h-75v68q-20 -32 -61.5 -56.5t-94.5 -24.5z" glyph-name="utilde" unicode="ũ"/><glyph d="M197 765v62h310v-62h-310zM347 -8q-123 0 -196.5 72.5t-73.5 196.5v439h78v-439q0 -92 52 -143.5t140 -51.5q87 0 139.5 51.5t52.5 143.5v439h77v-439q0 -124 -73.5 -196.5t-195.5 -72.5z" glyph-name="Umacron" horiz-adv-x="693" unicode="Ū"/><glyph d="M131 565v62h310v-62h-310zM258 -13q-78 0 -132 53.5t-54 152.5v307h79v-302q1 -64 34 -104t85 -40q65 0 104 48t40 129v269h75v-500h-75v68q-20 -32 -61.5 -56.5t-94.5 -24.5z" glyph-name="umacron" unicode="ū"/><glyph d="M349 748q-76 0 -121.5 46t-46.5 116h61q1 -45 28.5 -76t78.5 -31q51 1 79.5 32t29.5 75h60q-1 -70 -47 -116t-122 -46zM347 -8q-123 0 -196.5 72.5t-73.5 196.5v439h78v-439q0 -92 52 -143.5t140 -51.5q87 0 139.5 51.5t52.5 143.5v439h77v-439q0 -124 -73.5 -196.5 t-195.5 -72.5z" glyph-name="Ubreve" horiz-adv-x="693" unicode="Ŭ"/><glyph d="M283 548q-76 0 -121.5 46t-46.5 116h61q1 -45 28.5 -76t78.5 -31q51 1 79.5 32t29.5 75h60q-1 -70 -47 -116t-122 -46zM258 -13q-78 0 -132 53.5t-54 152.5v307h79v-302q1 -64 34 -104t85 -40q65 0 104 48t40 129v269h75v-500h-75v68q-20 -32 -61.5 -56.5t-94.5 -24.5z " glyph-name="ubreve" unicode="ŭ"/><glyph d="M349 743q-39 0 -67 28t-28 66q0 39 28 67t67 28t66 -28t28 -67q0 -38 -27.5 -66t-66.5 -28zM349 789q21 0 34.5 13.5t13.5 34.5t-13.5 35.5t-34.5 14.5t-35 -14.5t-14 -35.5t14 -34.5t35 -13.5zM347 -8q-123 0 -196.5 72.5t-73.5 196.5v439h78v-439q0 -92 52 -143.5 t140 -51.5q87 0 139.5 51.5t52.5 143.5v439h77v-439q0 -124 -73.5 -196.5t-195.5 -72.5z" glyph-name="Uring" horiz-adv-x="693" unicode="Ů"/><glyph d="M283 543q-39 0 -67 28t-28 66q0 39 28 67t67 28t66 -28t28 -67q0 -38 -27.5 -66t-66.5 -28zM283 589q21 0 34.5 13.5t13.5 34.5t-13.5 35.5t-34.5 14.5t-35 -14.5t-14 -35.5t14 -34.5t35 -13.5zM258 -13q-78 0 -132 53.5t-54 152.5v307h79v-302q1 -64 34 -104t85 -40 q65 0 104 48t40 129v269h75v-500h-75v68q-20 -32 -61.5 -56.5t-94.5 -24.5z" glyph-name="uring" unicode="ů"/><glyph d="M213 760v102h97v-102h-97zM383 760v102h96v-102h-96zM347 -8q-123 0 -196.5 72.5t-73.5 196.5v439h78v-439q0 -92 52 -143.5t140 -51.5q87 0 139.5 51.5t52.5 143.5v439h77v-439q0 -124 -73.5 -196.5t-195.5 -72.5z" glyph-name="Uhungarumlaut" horiz-adv-x="693" unicode="Ű"/><glyph d="M147 560v102h97v-102h-97zM317 560v102h96v-102h-96zM258 -13q-78 0 -132 53.5t-54 152.5v307h79v-302q1 -64 34 -104t85 -40q65 0 104 48t40 129v269h75v-500h-75v68q-20 -32 -61.5 -56.5t-94.5 -24.5z" glyph-name="uhungarumlaut" unicode="ű"/><glyph d="M539 700h77v-439q0 -115 -63 -185.5t-170 -81.5q-43 -19 -72.5 -57t-29.5 -77q0 -29 17 -46.5t48 -17.5q57 0 94 47l32 -45q-56 -56 -140 -54q-53 2 -85.5 30t-32.5 78q0 82 99 142q-109 10 -172.5 81t-63.5 186v439h78v-439q0 -92 52 -143.5t140 -51.5q87 0 139.5 51.5 t52.5 143.5v439z" glyph-name="Uogonek" horiz-adv-x="693" unicode="Ų"/><glyph d="M512 -161l32 -45q-56 -56 -140 -54q-53 2 -85.5 30t-32.5 78q0 96 128 157v63q-20 -32 -61.5 -56.5t-94.5 -24.5q-78 0 -132 53.5t-54 152.5v307h79v-302q1 -64 34 -104t85 -40q65 0 104 48t40 129v269h75v-500h-1q-54 -11 -94.5 -54t-40.5 -90q0 -29 17 -46.5t48 -17.5 q57 0 94 47z" glyph-name="uogonek" unicode="ų"/><glyph d="M410 875h103l103 -128h-85l-69 83l-69 -83h-85zM225 0l-198 700h78l164 -592l161 592h75l165 -593l157 593h79l-194 -700h-87l-158 573l-156 -573h-86z" glyph-name="Wcircumflex" horiz-adv-x="933" unicode="Ŵ"/><glyph d="M314 675h103l103 -128h-85l-69 83l-69 -83h-85zM174 0l-157 500h85l116 -409l115 409h73l116 -409l115 409h86l-157 -500h-89l-107 380l-107 -380h-89z" glyph-name="wcircumflex" horiz-adv-x="740" unicode="ŵ"/><glyph d="M260 875h103l103 -128h-85l-69 83l-69 -83h-85zM277 0v288l-255 412h85l209 -343l213 343h81l-255 -412v-288h-78z" glyph-name="Ycircumflex" horiz-adv-x="632" unicode="Ŷ"/><glyph d="M189 675h103l103 -128h-85l-69 83l-69 -83h-85zM41 -200v71h36q71 0 98 71l33 88l-196 470h85l150 -376l146 376h84l-226 -574q-25 -62 -64 -93.5t-105 -32.5h-41z" glyph-name="ycircumflex" horiz-adv-x="489" unicode="ŷ"/><glyph d="M181 755v102h97v-102h-97zM351 755v102h96v-102h-96zM277 0v288l-255 412h85l209 -343l213 343h81l-255 -412v-288h-78z" glyph-name="Ydieresis" horiz-adv-x="632" unicode="Ÿ"/><glyph d="M357 751h-78l103 124h97zM52 0v75l461 550h-455v75h551v-75l-460 -550h454v-75h-551z" glyph-name="Zacute" horiz-adv-x="651" unicode="Ź"/><glyph d="M280 551h-78l103 124h97zM42 0v70l307 361h-307v70l399 -1v-69l-306 -361h304v-70h-397z" glyph-name="zacute" horiz-adv-x="493" unicode="ź"/><glyph d="M275 763v102h97v-102h-97zM52 0v75l461 550h-455v75h551v-75l-460 -550h454v-75h-551z" glyph-name="Zdotaccent" horiz-adv-x="651" unicode="Ż"/><glyph d="M198 563v102h97v-102h-97zM42 0v70l307 361h-307v70l399 -1v-69l-306 -361h304v-70h-397z" glyph-name="zdotaccent" horiz-adv-x="493" unicode="ż"/><glyph d="M170 878h84l70 -83l71 83h83l-103 -128h-103zM52 0v75l461 550h-455v75h551v-75l-460 -550h454v-75h-551z" glyph-name="Zcaron" horiz-adv-x="651" unicode="Ž"/><glyph d="M93 678h84l70 -83l71 83h83l-103 -128h-103zM42 0v70l307 361h-307v70l399 -1v-69l-306 -361h304v-70h-397z" glyph-name="zcaron" horiz-adv-x="493" unicode="ž"/><glyph d="M262 711q105 0 168.5 -70t63.5 -187q0 -116 -62.5 -188t-168.5 -72q-105 0 -164.5 77t-56.5 199h373v1q0 79 -41.5 125t-112.5 46q-47 0 -86.5 -27t-52.5 -75h-72q11 75 69 123t143 48zM412 403h-288q6 -65 41 -103t100 -38q64 0 102 38.5t45 102.5z" glyph-name="uni018F" horiz-adv-x="536" unicode="Ə"/><glyph d="M328 -7q-112 0 -192.5 58t-88.5 165h88q11 -71 63 -110.5t136 -39.5q75 0 118.5 36t43.5 93q0 52 -37.5 80.5t-126.5 42.5q-141 21 -203.5 70t-62.5 127q0 80 67.5 135.5t167.5 55.5q122 0 193 -59.5t72 -162.5h-82q-5 71 -52.5 109t-127.5 38q-67 0 -110 -33.5 t-43 -81.5q0 -94 176 -120q141 -21 197.5 -69t56.5 -133q0 -91 -70 -146t-183 -55zM270 -267v47q49 2 46 55h-50v102h96v-102q0 -50 -25 -76t-67 -26z" glyph-name="Scommaaccent" horiz-adv-x="628" unicode="Ș"/><glyph d="M246 -11q-85 0 -145 44.5t-64 126.5h76q6 -51 43.5 -78t92.5 -27q54 0 81 25.5t27 62.5q0 33 -26 51.5t-87 28.5q-104 17 -148 54t-44 93q0 58 50 98.5t125 40.5q83 0 139 -43t57 -127h-72q-7 103 -121 103q-43 0 -72.5 -20t-29.5 -52q0 -62 115 -80q104 -15 147.5 -49.5 t43.5 -99.5q0 -66 -52.5 -109t-135.5 -43zM192 -267v47q49 2 46 55h-50v102h96v-102q0 -50 -25 -76t-67 -26z" glyph-name="scommaaccent" horiz-adv-x="471" unicode="ș"/><glyph d="M263 0v627h-251v73h578v-73h-250v-627h-77zM257 -267v47q49 2 46 55h-50v102h96v-102q0 -50 -25 -76t-67 -26z" glyph-name="uni021A" horiz-adv-x="602" unicode="Ț"/><glyph d="M204 0q-57 0 -91.5 35t-34.5 94v304h-76v67h76v147h75v-147h121v-67h-121v-293q0 -70 62 -70h60v-70h-71zM131 -267v47q49 2 46 55h-50v102h96v-102q0 -50 -25 -76t-67 -26z" glyph-name="uni021B" horiz-adv-x="297" unicode="ț"/><glyph d="M164 765v62h310v-62h-310zM277 0v288l-255 412h85l209 -343l213 343h81l-255 -412v-288h-78z" glyph-name="uni0232" horiz-adv-x="632" unicode="Ȳ"/><glyph d="M93 565v62h310v-62h-310zM41 -200v71h36q71 0 98 71l33 88l-196 470h85l150 -376l146 376h84l-226 -574q-25 -62 -64 -93.5t-105 -32.5h-41z" glyph-name="uni0233" horiz-adv-x="489" unicode="ȳ"/><glyph d="M-8 -177v73h21q30 0 48 19t18 56v529h76v-537q0 -66 -37 -103t-98 -37h-28z" glyph-name="uni0237" horiz-adv-x="222" unicode="ȷ"/><glyph d="M128 707h103l103 -128h-85l-69 83l-69 -83h-85z" glyph-name="circumflex" horiz-adv-x="53" unicode="ˆ"/><glyph d="M26 707h84l70 -83l71 83h83l-103 -128h-103z" glyph-name="caron" horiz-adv-x="53" unicode="ˇ"/><glyph d="M288 564q-76 0 -121.5 46t-46.5 116h61q1 -45 28.5 -76t78.5 -31q51 1 79.5 32t29.5 75h60q-1 -70 -47 -116t-122 -46z" glyph-name="breve" horiz-adv-x="53" unicode="˘"/><glyph d="M103 593v102h97v-102h-97z" glyph-name="dotaccent" horiz-adv-x="53" unicode="˙"/><glyph d="M86 561q-39 0 -67 28t-28 66q0 39 28 67t67 28t66 -28t28 -67q0 -38 -27.5 -66t-66.5 -28zM86 607q21 0 34.5 13.5t13.5 34.5t-13.5 35.5t-34.5 14.5t-35 -14.5t-14 -35.5t14 -34.5t35 -13.5z" glyph-name="ring" horiz-adv-x="53" unicode="˚"/><glyph d="M130 -260q-53 2 -85.5 30t-32.5 78q0 53 41 96t112 72l49 -16q-54 -11 -94.5 -54t-40.5 -90q0 -29 17 -46.5t48 -17.5q57 0 94 47l32 -45q-56 -56 -140 -54z" glyph-name="ogonek" horiz-adv-x="53" unicode="˛"/><glyph d="M-135 613q-58 0 -94 55q-18 28 -42 28q-18 0 -29 -13.5t-11 -35.5q0 -16 3 -25h-60q-3 12 -3 23q-1 48 26.5 79t70.5 31q58 0 95 -55q16 -28 42 -28q20 0 30.5 16t8.5 42q0 5 -2 15h60q1 -5 1 -16q5 -50 -22.5 -83t-73.5 -33z" glyph-name="tilde" horiz-adv-x="0" unicode="˜"/><glyph d="M82 597v102h97v-102h-97zM252 597v102h96v-102h-96z" glyph-name="hungarumlaut" horiz-adv-x="53" unicode="˝"/><glyph d="M-112 590l-122 124h96l104 -124h-78z" glyph-name="gravecomb" horiz-adv-x="0" unicode="̀"/><glyph d="M-296 590h-78l103 124h97z" glyph-name="acutecomb" horiz-adv-x="0" unicode="́"/><glyph d="M-135 613q-58 0 -94 55q-18 28 -42 28q-18 0 -29 -13.5t-11 -35.5q0 -16 3 -25h-60q-3 12 -3 23q-1 48 26.5 79t70.5 31q58 0 95 -55q16 -28 42 -28q20 0 30.5 16t8.5 42q0 5 -2 15h60q1 -5 1 -16q5 -50 -22.5 -83t-73.5 -33z" glyph-name="tildecomb" horiz-adv-x="0" unicode="̃"/><glyph d="M-132 -240v102h97v-102h-97z" glyph-name="dotbelowcomb" horiz-adv-x="0" unicode="̣"/><glyph d="M-350 -267v47q49 2 46 55h-50v102h96v-102q0 -50 -25 -76t-67 -26z" glyph-name="uni0326" horiz-adv-x="0" unicode="̦"/><glyph d="M444 753l-122 124h96l104 -124h-78zM225 0l-198 700h78l164 -592l161 592h75l165 -593l157 593h79l-194 -700h-87l-158 573l-156 -573h-86z" glyph-name="Wgrave" horiz-adv-x="933" unicode="Ẁ"/><glyph d="M348 553l-122 124h96l104 -124h-78zM174 0l-157 500h85l116 -409l115 409h73l116 -409l115 409h86l-157 -500h-89l-107 380l-107 -380h-89z" glyph-name="wgrave" horiz-adv-x="740" unicode="ẁ"/><glyph d="M498 751h-78l103 124h97zM225 0l-198 700h78l164 -592l161 592h75l165 -593l157 593h79l-194 -700h-87l-158 573l-156 -573h-86z" glyph-name="Wacute" horiz-adv-x="933" unicode="Ẃ"/><glyph d="M401 551h-78l103 124h97zM174 0l-157 500h85l116 -409l115 409h73l116 -409l115 409h86l-157 -500h-89l-107 380l-107 -380h-89z" glyph-name="wacute" horiz-adv-x="740" unicode="ẃ"/><glyph d="M331 755v102h97v-102h-97zM501 755v102h96v-102h-96zM225 0l-198 700h78l164 -592l161 592h75l165 -593l157 593h79l-194 -700h-87l-158 573l-156 -573h-86z" glyph-name="Wdieresis" horiz-adv-x="933" unicode="Ẅ"/><glyph d="M234 555v102h97v-102h-97zM404 555v102h96v-102h-96zM174 0l-157 500h85l116 -409l115 409h73l116 -409l115 409h86l-157 -500h-89l-107 380l-107 -380h-89z" glyph-name="wdieresis" horiz-adv-x="740" unicode="ẅ"/><glyph d="M92 0v700h79v-700h-79zM84 -169v102h97v-102h-97z" glyph-name="uni1ECA" horiz-adv-x="263" unicode="Ị"/><glyph d="M80 0v500h78v-500h-78zM71 -190v102h96v-102h-96z" glyph-name="uni1ECB" horiz-adv-x="239" unicode="ị"/><glyph d="M378 -10q-139 0 -232.5 103.5t-93.5 256.5q0 154 92.5 256t233.5 102t233.5 -102.5t92.5 -257.5q0 -152 -93.5 -255t-232.5 -103zM376 66q109 0 179 80t70 198q0 124 -69 206.5t-178 82.5q-108 0 -176.5 -82t-68.5 -205q0 -119 68.5 -199.5t174.5 -80.5zM330 -169v102h97 v-102h-97z" glyph-name="uni1ECC" horiz-adv-x="756" unicode="Ọ"/><glyph d="M278 -5q-102 0 -169 72t-67 183q0 113 67 185t169 72q105 0 170 -71.5t65 -185.5q0 -111 -66.5 -183t-168.5 -72zM276 66q74 0 118.5 51t44.5 131q0 84 -42.5 136t-118.5 52q-71 0 -115.5 -52t-44.5 -134q0 -81 43.5 -132.5t114.5 -51.5zM230 -169v102h97v-102h-97z" glyph-name="uni1ECD" horiz-adv-x="555" unicode="ọ"/><glyph d="M347 -8q-123 0 -196.5 72.5t-73.5 196.5v439h78v-439q0 -92 52 -143.5t140 -51.5q87 0 139.5 51.5t52.5 143.5v439h77v-439q0 -124 -73.5 -196.5t-195.5 -72.5zM299 -169v102h97v-102h-97z" glyph-name="uni1EE4" horiz-adv-x="693" unicode="Ụ"/><glyph d="M258 -13q-78 0 -132 53.5t-54 152.5v307h79v-302q1 -64 34 -104t85 -40q65 0 104 48t40 129v269h75v-500h-75v68q-20 -32 -61.5 -56.5t-94.5 -24.5zM235 -169v102h97v-102h-97z" glyph-name="uni1EE5" unicode="ụ"/><glyph d="M294 753l-122 124h96l104 -124h-78zM277 0v288l-255 412h85l209 -343l213 343h81l-255 -412v-288h-78z" glyph-name="Ygrave" horiz-adv-x="632" unicode="Ỳ"/><glyph d="M223 553l-122 124h96l104 -124h-78zM41 -200v71h36q71 0 98 71l33 88l-196 470h85l150 -376l146 376h84l-226 -574q-25 -62 -64 -93.5t-105 -32.5h-41z" glyph-name="ygrave" horiz-adv-x="489" unicode="ỳ"/><glyph d="M94 228v54h500v-54h-500z" glyph-name="endash" horiz-adv-x="687" unicode="–"/><glyph d="M10 228v54h1000v-54h-1000z" glyph-name="emdash" horiz-adv-x="1019" unicode="—"/><glyph d="M38 590l1 102q0 49 25 75.5t66 26.5v-47q-48 -2 -45 -55h50v-102h-97z" glyph-name="quoteleft" horiz-adv-x="161" unicode="‘"/><glyph d="M35 587v47q23 1 35 15.5t10 39.5h-49v102h96l-1 -102q1 -49 -24.5 -75.5t-66.5 -26.5z" glyph-name="quoteright" horiz-adv-x="116" unicode="’"/><glyph d="M50 -102v47q23 1 35 15.5t10 39.5h-49v102h96l-1 -102q1 -49 -24.5 -75.5t-66.5 -26.5z" glyph-name="quotesinglbase" horiz-adv-x="239" unicode="‚"/><glyph d="M13 590v102q0 50 25 76t67 26v-47q-49 -2 -46 -55h50v-102h-96zM149 590l1 102q0 49 25 75.5t66 26.5v-47q-48 -2 -45 -55h50v-102h-97z" glyph-name="quotedblleft" horiz-adv-x="254" unicode="“"/><glyph d="M11 587v48q49 2 46 54h-50v103h96v-103q0 -49 -25 -75.5t-67 -26.5zM154 587v48q49 2 46 54h-50v103h96v-103q0 -49 -25 -75.5t-67 -26.5z" glyph-name="quotedblright" horiz-adv-x="261" unicode="”"/><glyph d="M51 -102v47q49 2 46 55h-50v102h96v-102q0 -50 -25 -76t-67 -26zM195 -102v47q23 1 35 15.5t10 39.5h-49v102h96l-1 -102q1 -49 -24.5 -75.5t-66.5 -26.5z" glyph-name="quotedblbase" horiz-adv-x="388" unicode="„"/><glyph d="M211 259v172h160v-172h-160z" glyph-name="bullet" horiz-adv-x="600" unicode="•"/><glyph d="M71 0v102h96v-102h-96zM313 0v102h96v-102h-96zM552 0v102h96v-102h-96z" glyph-name="ellipsis" horiz-adv-x="719" unicode="…"/><glyph d="M195 466q-54 0 -92 42t-38 101t38 101t92 42t92 -42t38 -101t-38 -101t-92 -42zM61 0l516 750h79l-516 -750h-79zM195 528q27 0 47 24t20 57t-20 56.5t-47 23.5t-46.5 -23t-19.5 -57t19.5 -57.5t46.5 -23.5zM531 -6q-54 0 -92 42t-38 102q0 59 38 101t92 42t92 -42 t38 -101q0 -60 -38 -102t-92 -42zM837 -5q-54 0 -92 42t-38 101t38 101t92 42t92 -42t38 -101t-38 -101t-92 -42zM837 57q28 0 47.5 23.5t19.5 57.5t-19.5 57t-47.5 23t-47 -23t-19 -57t19 -57.5t47 -23.5zM531 56q27 0 46.5 23.5t19.5 57.5t-19.5 57t-46.5 23 q-28 0 -47.5 -23t-19.5 -57t19.5 -57.5t47.5 -23.5z" glyph-name="perthousand" horiz-adv-x="1026" unicode="‰"/><glyph d="M207 95l-152 184l152 184h74l-152 -184l152 -184h-74z" glyph-name="guilsinglleft" horiz-adv-x="339" unicode="‹"/><glyph d="M66 95l152 184l-152 184h74l152 -184l-152 -184h-74z" glyph-name="guilsinglright" horiz-adv-x="339" unicode="›"/><glyph d="M359 54q77 -1 122 42.5t55 127.5h74q-11 -110 -76.5 -174t-171.5 -64q-112 0 -183 71.5t-84 200.5h-67v62h65v73h-65v58h67q13 128 84 200t182 72q105 1 169 -61t74 -167h-74q-7 79 -52 120.5t-120 40.5q-82 0 -129.5 -54.5t-54.5 -150.5h211v-58h-214v-73h213l1 -62 h-211q7 -97 54 -150.5t131 -53.5z" glyph-name="Euro" horiz-adv-x="644" unicode="€"/><glyph d="M222 465v203h-89v32h210v-32l-88 1v-204h-33zM376 466v234h40l84 -193l82 193h38v-234h-32v169l-71 -169h-35l-74 171l1 -171h-33z" glyph-name="trademark" horiz-adv-x="772" unicode="™"/><glyph d="M458 -9q-177 0 -302 112.5t-125 270.5q0 160 125 273t302 113q178 0 303 -113t125 -273v-10h-692q-6 0 -6 -4v-210q0 -11 9 -24q111 -114 262 -114q81 0 153 34t123 94h61q-58 -69 -147 -109t-191 -40zM194 385h531q4 0 4 7v210q0 16 -10 25q-112 110 -260 110t-261 -113 q-10 -12 -10 -26v-206q0 -7 6 -7z" glyph-name="estimated" horiz-adv-x="918" unicode="℮"/><glyph d="M64 256v63h600v-63h-600z" glyph-name="minus" horiz-adv-x="727" unicode="−"/><glyph d="M664 328h-208l-107 -125h315v-62h-367l-119 -139h-64l119 139h-169v62h221l107 125h-328v62h381l95 112h65l-96 -112h155v-62z" glyph-name="notequal" horiz-adv-x="727" unicode="≠"/><glyph d="M664 87l-552 271v61l552 270v-69l-482 -232l482 -232v-69zM334 12v-1h108v1h-108z" glyph-name="lessequal" horiz-adv-x="799" unicode="≤"/><glyph d="M112 87v69l482 232l-482 232v69l552 -270v-61zM111 12l223 26l332 -26l-224 -26z" glyph-name="greaterequal" horiz-adv-x="775" unicode="≥"/><glyph d="M565 288v-61h-56v-227h-73v80q-20 -38 -66 -64.5t-102 -26.5q-90 0 -154.5 65.5t-70.5 172.5h-47v61h48q12 99 74 158t147 59q57 0 102.5 -25.5t68.5 -64.5v285h73v-412h56zM277 434q-61 0 -101.5 -40t-49.5 -106h308q-11 66 -53.5 106t-103.5 40zM277 61q68 0 112 46 t49 120h-314q6 -75 47.5 -120.5t105.5 -45.5z" glyph-name="glyph354" horiz-adv-x="550"/><glyph d="M76 -1v701l280 1q92 -1 148.5 -59t56.5 -149q0 -76 -42 -129t-113 -69l177 -295h-87l-171 289h-173v-290h-76zM152 358h193q63 0 102 36.5t39 98.5q0 64 -39 101.5t-102 37.5h-192z" glyph-name="glyph355" horiz-adv-x="619"/><glyph d="M267 -11q-98 0 -161 73t-63 185q0 113 62 185.5t159 72.5q54 0 98.5 -23.5t70.5 -63.5v82h75v-500h-75v79q-24 -41 -68.5 -65.5t-97.5 -24.5zM274 58q72 0 116.5 51t44.5 133q0 85 -44.5 139.5t-116.5 54.5q-69 0 -111 -52.5t-42 -136.5t42 -136.5t111 -52.5z" glyph-name="glyph356" horiz-adv-x="555"/><glyph d="M146 0q-61 0 -98 37t-37 103l2 560h76l-2 -552q-1 -37 17.5 -56t48.5 -19h21v-73h-28z" glyph-name="glyph357" horiz-adv-x="223"/></font>
</defs>
</svg>
