<?xml version="1.0" standalone="no"?>
<!DOCTYPE svg PUBLIC "-//W3C//DTD SVG 1.1//EN" "http://www.w3.org/Graphics/SVG/1.1/DTD/svg11.dtd">
<svg xmlns="http://www.w3.org/2000/svg"><metadata>This SVG WebFont was generated by YouWorkForThem.
Copyright Â© 2017 by Samuel Oakes. All rights reserved.</metadata><defs><font horiz-adv-x="568" id="ywftsvg"><font-face ascent="800" bbox="-457 -478 1072 955" cap-height="700" descent="-200" font-family="" font-stretch="normal" font-weight="500" panose-1="0 0 6 0 0 0 0 0 0 0" underline-position="0" underline-thickness="0" unicode-range="U+0020-2265" units-per-em="1000" x-height="500"/><missing-glyph horiz-adv-x="600"/><glyph glyph-name=".notdef" horiz-adv-x="600"/><glyph glyph-name="glyph1" horiz-adv-x="600"/><glyph glyph-name="glyph2" horiz-adv-x="333"/><glyph glyph-name="space" horiz-adv-x="280" unicode=" "/><glyph d="M58 206l-12 544h95l-12 -544h-71zM44 0v111h104v-111h-104z" glyph-name="exclam" horiz-adv-x="237" unicode="!"/><glyph d="M60 599l-30 85v111h103v-111l-30 -85h-43zM231 599l-30 85v111h104v-111l-30 -85h-44z" glyph-name="quotedbl" horiz-adv-x="350" unicode="&quot;"/><glyph d="M178 0l24 167h-132l7 74h135l31 214h-131l8 74h133l24 173h74l-23 -173h171l23 173h74l-23 -173h117l-8 -74h-118l-32 -214h116l-7 -74h-119l-26 -167h-73l24 167h-172l-23 -167h-74zM286 241h171l33 214h-174z" glyph-name="numbersign" horiz-adv-x="750" unicode="#"/><glyph d="M307 -55v52q-98 10 -166 67t-74 153h100q11 -66 59.5 -102.5t127.5 -36.5q71 0 111.5 34.5t40.5 86.5q0 48 -35 75t-117 39q-268 37 -268 198q0 79 60.5 134.5t155.5 61.5v50h86v-56q92 -15 146 -71.5t56 -144.5h-94q-5 65 -50.5 100.5t-118.5 35.5q-64 0 -103.5 -32 t-39.5 -75q0 -91 165 -113q140 -19 198 -69t58 -135q0 -82 -58 -136t-154 -65v-51h-86z" glyph-name="dollar" horiz-adv-x="643" unicode="$"/><glyph d="M57 0l516 750h89l-516 -750h-89zM197 470q-54 0 -92 40.5t-38 98.5t38 98.5t92 40.5t92 -40.5t38 -98.5t-38 -98.5t-92 -40.5zM197 536q26 0 44 21t18 51t-18 51t-44 21q-25 0 -43 -21t-18 -51t18 -51t43 -21zM529 -4q-54 0 -92 40.5t-38 98.5t38 98.5t92 40.5t92 -40.5 t38 -98.5t-38 -98.5t-92 -40.5zM529 63q26 0 44 21t18 51t-18 50.5t-44 20.5t-43.5 -20.5t-17.5 -50.5q0 -31 17.5 -51.5t43.5 -20.5z" glyph-name="percent" horiz-adv-x="723" unicode="%"/><glyph d="M288 -14q-94 0 -157 55t-63 137q0 123 128 203q-79 90 -79 164q0 69 51.5 118t125.5 49q72 0 121.5 -46.5t49.5 -115.5q0 -56 -38.5 -105.5t-98.5 -79.5l144 -142l41 72l104 1l-77 -138l158 -158h-119l-88 88q-78 -102 -203 -102zM271 425q50 23 81 56.5t31 67.5 q0 36 -25 60.5t-63 24.5q-37 0 -63.5 -25t-26.5 -59q0 -57 66 -125zM284 71q85 0 143 80l-174 169q-99 -55 -99 -134q0 -51 38 -83t92 -32z" glyph-name="ampersand" horiz-adv-x="743" unicode="&amp;"/><glyph d="M42 599l-30 85v111h103v-111l-30 -85h-43z" glyph-name="quotesingle" horiz-adv-x="118" unicode="'"/><glyph d="M237 -224q-75 96 -121 231t-46 285t45 285.5t122 212.5h78q-82 -92 -126 -223.5t-44 -274.5q0 -142 47 -275.5t120 -240.5h-75z" glyph-name="parenleft" horiz-adv-x="310" unicode="("/><glyph d="M27 -224q73 107 120 240.5t47 275.5q0 143 -44 274.5t-126 223.5h78q77 -77 122 -212.5t45 -285.5t-46 -285t-121 -231h-75z" glyph-name="parenright" horiz-adv-x="330" unicode=")"/><glyph d="M116 497l-52 31l56 75l-94 -9v59l94 -10l-56 76l52 31l38 -87l39 87l52 -31l-56 -76l94 10v-59l-94 9l56 -75l-52 -31l-39 86z" glyph-name="asterisk" horiz-adv-x="303" unicode="*"/><glyph d="M371 29v223h-203v68h203v222h66v-222h203v-68h-203v-223h-66z" glyph-name="plus" horiz-adv-x="807" unicode="+"/><glyph d="M21 -108v52q51 2 48 56h-53v111h104l-1 -111q1 -53 -26 -80.5t-72 -27.5z" glyph-name="comma" horiz-adv-x="148" unicode=","/><glyph d="M94 291v66h350v-66h-350z" glyph-name="hyphen" horiz-adv-x="537" unicode="-"/><glyph d="M30 0v111h104v-111h-104z" glyph-name="period" horiz-adv-x="172" unicode="."/><glyph d="M72 -200l440 950h84l-439 -950h-85z" glyph-name="slash" horiz-adv-x="576" unicode="/"/><glyph d="M314 -9q-121 0 -194 97.5t-73 257.5q0 162 73.5 260.5t195.5 98.5q120 0 193.5 -98.5t73.5 -258.5t-74 -258.5t-195 -98.5zM315 69q82 0 131 76t49 200q0 127 -49.5 204t-132.5 77q-82 0 -129.5 -74.5t-47.5 -200.5q0 -128 48.5 -205t130.5 -77z" glyph-name="zero" horiz-adv-x="630" unicode="0"/><glyph d="M491 0h-415v76h169v522l-165 -123v86l176 134h71v-619h164v-76z" glyph-name="one" horiz-adv-x="552" unicode="1"/><glyph d="M42 0v86l196 173q54 48 78 70.5t51.5 53.5t37 55.5t9.5 53.5q0 61 -38 97.5t-101 36.5q-62 0 -102.5 -38t-46.5 -103h-92q6 99 73 160.5t168 61.5q98 0 162.5 -60.5t64.5 -151.5q0 -39 -12 -73t-42 -70.5t-54 -60t-75 -69.5l-155 -140l347 1v-83h-469z" glyph-name="two" horiz-adv-x="544" unicode="2"/><glyph d="M382 365q58 -19 97.5 -62.5t38.5 -113.5q-1 -85 -66 -142t-169 -57q-108 0 -176.5 63t-72.5 163h91q-1 -64 42.5 -104t112.5 -40q67 0 107.5 35t40.5 85q0 56 -46.5 89.5t-124.5 33.5h-34v84h30q71 0 114 32.5t43 86.5q0 48 -37.5 77.5t-96.5 29.5q-64 0 -101.5 -37.5 t-41.5 -103.5h-90q4 102 68 163t170 61q97 0 158 -50.5t61 -129.5q0 -58 -35.5 -101.5t-82.5 -61.5z" glyph-name="three" horiz-adv-x="552" unicode="3"/><glyph d="M447 0h-86v146h-340v76l325 478h101v-474h103v-81h-103v-145zM361 589l-248 -363h248v363z" glyph-name="four" horiz-adv-x="572" unicode="4"/><glyph d="M294 466q96 0 160.5 -65t64.5 -167t-68.5 -170.5t-172.5 -68.5q-102 0 -169.5 63t-66.5 160h85q1 -67 42.5 -104.5t109.5 -37.5q66 0 108.5 45t43.5 108q1 67 -42 113.5t-108 46.5q-74 0 -126 -53h-91l59 364h348v-82h-282l-32 -199q61 47 137 47z" glyph-name="five" horiz-adv-x="559" unicode="5"/><glyph d="M289 -4q-116 0 -186.5 91t-70.5 260q0 83 16 147.5t41 103.5t60 64t69.5 34t72.5 9q91 0 151.5 -52.5t72.5 -132.5l-83 -1q-13 56 -55 84t-96 25q-159 -11 -165 -249v-26q28 50 77 77t107 27q94 0 159 -63.5t65 -164.5q0 -107 -68.5 -169.5t-166.5 -63.5zM289 76 q62 0 102 44t40 107q0 62 -40.5 103t-101.5 41t-103.5 -43t-42.5 -105q0 -59 42 -103t104 -44z" glyph-name="six" horiz-adv-x="555" unicode="6"/><glyph d="M212 0h-91l300 622h-391v78h483v-76z" glyph-name="seven" horiz-adv-x="543" unicode="7"/><glyph d="M275 -9q-107 0 -170.5 59t-63.5 144q0 64 35 111t94 68q-50 17 -81.5 60.5t-31.5 95.5q0 77 60 127.5t156 50.5q97 0 159 -51t62 -128q0 -56 -34.5 -98t-80.5 -57q61 -20 96 -68t35 -112q0 -84 -64 -143t-171 -59zM275 416q56 0 92.5 31t36.5 78q0 43 -37 75t-93 32 t-92 -31.5t-36 -74.5q0 -48 36 -79t93 -31zM275 69q63 0 103.5 36t40.5 90q0 56 -41 93.5t-104 37.5t-102.5 -36.5t-39.5 -93.5q0 -55 39.5 -91t103.5 -36z" glyph-name="eight" horiz-adv-x="551" unicode="8"/><glyph d="M267 705q115 1 186 -90.5t71 -259.5q0 -83 -16 -148t-41 -104t-60.5 -64t-69.5 -34t-72 -9q-92 1 -152.5 53t-72.5 132l84 1q13 -57 55 -84.5t96 -23.5q160 9 164 248l1 27q-29 -51 -78 -78t-107 -27q-94 0 -158.5 63.5t-64.5 164.5q0 107 68.5 170t166.5 63zM266 626 q-62 0 -101.5 -44t-39.5 -108q0 -62 40.5 -103t101.5 -41t103 43t42 106q0 59 -42 103t-104 44z" glyph-name="nine" horiz-adv-x="555" unicode="9"/><glyph d="M38 390v110h103v-110h-103zM38 0v111h104v-111h-104z" glyph-name="colon" horiz-adv-x="235" unicode=":"/><glyph d="M88 389v111h104v-111h-104zM93 -108v52q51 2 48 56h-53v111h104l-1 -111q1 -53 -26 -80.5t-72 -27.5z" glyph-name="semicolon" horiz-adv-x="295" unicode=";"/><glyph d="M646 26l-552 279v61l552 277v-76l-470 -232l470 -231v-78z" glyph-name="less" horiz-adv-x="739" unicode="&lt;"/><glyph d="M64 324v70h600v-70h-600zM64 137v70h600v-70h-600z" glyph-name="equal" horiz-adv-x="727" unicode="="/><glyph d="M94 26v78l470 231l-470 232v76l552 -277v-61z" glyph-name="greater" horiz-adv-x="739" unicode=">"/><glyph d="M195 179v52q0 56 18.5 98t45.5 67.5t54 47t45.5 49t18.5 60.5q0 54 -40.5 88t-93.5 34q-51 0 -93 -34t-45 -96h-80q0 86 64 145t152 59q93 0 155 -58.5t62 -137.5q0 -42 -18.5 -76.5t-45 -58.5t-52.5 -47.5t-44.5 -57t-18.5 -73.5v-61h-84zM187 0v111h103v-111h-103z" glyph-name="question" horiz-adv-x="526" unicode="?"/><glyph d="M336 -17q-134 0 -225 85.5t-91 214.5q0 134 95 230t229 96q131 0 216 -80.5t85 -204.5q0 -83 -45 -138t-108 -55q-61 0 -84 44q-42 -48 -99 -48q-59 0 -94.5 38.5t-35.5 101.5q0 74 44 126.5t106 52.5q54 0 78 -38l2 32h79l-17 -150q0 -3 -2 -22.5t-3 -22.5 q-3 -44 26 -44q32 0 55.5 33.5t23.5 88.5q0 97 -62 156t-165 59q-105 0 -176 -73.5t-71 -180.5q0 -102 68 -166t171 -64h255v-71h-255zM316 197q32 0 55.5 31t23.5 74q0 35 -15.5 54t-43.5 19q-32 0 -54.5 -31t-22.5 -77q0 -70 57 -70z" glyph-name="at" horiz-adv-x="648" unicode="@"/><glyph d="M128 0l-100 1l268 699h92l268 -700h-100l-69 184h-290zM223 267h238l-119 326z" glyph-name="A" horiz-adv-x="684" unicode="A"/><glyph d="M83 -2v702h294q80 -2 133.5 -51.5t53.5 -129.5q0 -47 -25 -85.5t-65 -55.5q54 -21 87.5 -70.5t32.5 -114.5q-1 -86 -55.5 -140.5t-142.5 -54.5h-313zM170 404h203q42 0 72 30.5t30 74.5q0 48 -29 80t-76 32h-200v-217zM171 84h206q52 0 86.5 32.5t34.5 83.5 q0 53 -34.5 89.5t-86.5 36.5h-206v-242z" glyph-name="B" horiz-adv-x="637" unicode="B"/><glyph d="M369 -5q-138 0 -230 99.5t-91 252.5q1 158 92.5 258.5t233.5 100.5q120 0 199.5 -68t95.5 -173h-98q-13 65 -67.5 109.5t-131.5 44.5q-100 0 -163 -77.5t-63 -196.5q0 -114 62 -188t160 -74q79 0 134.5 46t68.5 110h98q-17 -106 -98 -175t-202 -69z" glyph-name="C" horiz-adv-x="712" unicode="C"/><glyph d="M83 -2v702l253 2q143 1 234 -96t91 -251q0 -156 -88 -255t-227 -100zM168 84l164 2q107 1 174 74t67 191q0 119 -66 192t-171 71l-168 -2v-528z" glyph-name="D" horiz-adv-x="709" unicode="D"/><glyph d="M83 0v700h447v-85h-360v-219h339v-83h-339v-228h360v-85h-447z" glyph-name="E" unicode="E"/><glyph d="M83 0v700h441v-83h-354v-224h333v-77h-333v-316h-87z" glyph-name="F" horiz-adv-x="532" unicode="F"/><glyph d="M370 -5q-138 0 -230.5 99.5t-91.5 252.5q1 157 94 258.5t236 101.5q119 0 200.5 -68.5t96.5 -173.5h-98q-12 65 -68 110.5t-133 45.5q-101 0 -166 -78.5t-65 -197.5q0 -114 64 -189t163 -75q75 1 138.5 48.5t77.5 140.5h-208v85l297 -1v-354h-79l-4 115 q-35 -59 -95.5 -89.5t-128.5 -30.5z" glyph-name="G" horiz-adv-x="755" unicode="G"/><glyph d="M83 0v700h93v-303h353v303h93v-700h-93v318h-353v-318h-93z" glyph-name="H" horiz-adv-x="705" unicode="H"/><glyph d="M88 0v700h91v-700h-91z" glyph-name="I" horiz-adv-x="267" unicode="I"/><glyph d="M230 -8q-94 0 -152.5 57.5t-59.5 153.5v54h85v-52q1 -59 36 -94.5t91 -35.5t89.5 38t33.5 104v483h90v-485q0 -103 -60 -163t-153 -60z" glyph-name="J" horiz-adv-x="516" unicode="J"/><glyph d="M83 0v700h85v-352l324 352h110l-289 -314l298 -386h-113l-246 322l-84 -92v-230h-85z" glyph-name="K" horiz-adv-x="624" unicode="K"/><glyph d="M83 0v700h92v-613h315v-87h-407z" glyph-name="L" horiz-adv-x="513" unicode="L"/><glyph d="M83 0v700h114l227 -588l221 588h110v-700h-85v542l-203 -542h-89l-206 546v-546h-89z" glyph-name="M" horiz-adv-x="838" unicode="M"/><glyph d="M519 0l-351 567v-567h-85v700h107l357 -578v578h85v-701z" glyph-name="N" horiz-adv-x="715" unicode="N"/><glyph d="M376 -10q-139 0 -233.5 103.5t-94.5 256.5q0 155 93.5 256.5t234.5 101.5t234.5 -102t93.5 -258q0 -153 -94.5 -255.5t-233.5 -102.5zM375 77q104 0 171 76.5t67 191.5q0 120 -66.5 199t-170.5 79t-169.5 -78.5t-65.5 -197.5q0 -116 66 -193t168 -77z" glyph-name="O" horiz-adv-x="752" unicode="O"/><glyph d="M83 -1v701l287 1q91 0 148 -59t57 -151q0 -91 -58 -148.5t-153 -57.5h-194v-286h-87zM170 363h183q60 0 98 34.5t38 94.5q0 61 -38 96.5t-98 35.5h-183v-261z" glyph-name="P" horiz-adv-x="603" unicode="P"/><glyph d="M662 -34l-109 82q-79 -54 -181 -54q-137 0 -230.5 101.5t-93.5 254.5t93 253.5t231 100.5t231.5 -101t93.5 -255q0 -149 -86 -248l99 -74zM371 79q56 0 102 29l-88 66l50 60l103 -78q67 75 67 189q0 117 -66.5 195.5t-166.5 78.5q-99 0 -164.5 -77.5t-65.5 -194.5 q0 -115 65 -191.5t164 -76.5z" glyph-name="Q" horiz-adv-x="758" unicode="Q"/><glyph d="M83 -1v701l288 1q94 0 149.5 -52.5t55.5 -137.5q0 -59 -31.5 -105t-76.5 -61q49 -15 68.5 -54.5t25.5 -112.5q1 -20 3.5 -53.5t3.5 -43.5t3.5 -28t7 -29t11.5 -24h-100q-4 11 -7 21t-5 25.5t-2.5 26t-2.5 37.5t-3 43q-2 35 -4.5 53t-10.5 41.5t-22 34.5t-39 19.5t-62 8.5 h-162v-311h-88zM171 388h183q60 0 98 31t38 86q0 59 -36 89t-100 30h-183v-236z" glyph-name="R" horiz-adv-x="650" unicode="R"/><glyph d="M326 -7q-112 0 -193.5 58t-89.5 165h100q11 -66 59.5 -102.5t127.5 -36.5q71 0 111.5 34.5t40.5 86.5q0 48 -34.5 75t-116.5 39q-269 35 -269 198q0 82 69 139t171 57q120 0 190.5 -59.5t73.5 -162.5h-94q-4 65 -50 100.5t-119 35.5q-63 0 -102.5 -32t-39.5 -75 q0 -90 164 -114q140 -19 198 -69t58 -134q0 -92 -70.5 -147.5t-184.5 -55.5z" glyph-name="S" horiz-adv-x="624" unicode="S"/><glyph d="M256 0l1 617h-248l-1 83h582l1 -83l-247 1l-1 -618h-87z" glyph-name="T" horiz-adv-x="599" unicode="T"/><glyph d="M347 -8q-124 0 -199 74t-75 199v435h88v-435q0 -89 50.5 -139.5t135.5 -50.5t135.5 50.5t50.5 139.5v435h89v-435q0 -125 -75 -199t-200 -74z" glyph-name="U" horiz-adv-x="695" unicode="U"/><glyph d="M276 0l-258 700h90l216 -591l214 591h91l-258 -700h-95z" glyph-name="V" horiz-adv-x="647" unicode="V"/><glyph d="M226 0l-203 700h89l161 -576l155 576h85l161 -576l153 576h89l-197 -700h-91l-157 561l-153 -561h-92z" glyph-name="W" horiz-adv-x="939" unicode="W"/><glyph d="M28 0l259 350l-259 350h109l203 -278l202 278h109l-259 -350l259 -350h-109l-202 278l-203 -278h-109z" glyph-name="X" horiz-adv-x="679" unicode="X"/><glyph d="M274 0v286l-256 414h97l203 -334l209 334h91l-256 -414v-286h-88z" glyph-name="Y" horiz-adv-x="636" unicode="Y"/><glyph d="M48 0v87l452 526h-446v87h555v-87l-448 -526h442v-87h-555z" glyph-name="Z" horiz-adv-x="647" unicode="Z"/><glyph d="M83 -317v1134h187v-66h-115v-1002h115v-66h-187z" glyph-name="bracketleft" horiz-adv-x="270" unicode="["/><glyph d="M515 -220l-474 970h85l474 -970h-85z" glyph-name="backslash" horiz-adv-x="576" unicode="\"/><glyph d="M83 -317v66h115v1002h-115v66h187v-1134h-187z" glyph-name="bracketright" horiz-adv-x="270" unicode="]"/><glyph d="M94 -68v68h500v-68h-500z" glyph-name="underscore" horiz-adv-x="687" unicode="_"/><glyph d="M64 585l-125 128h110l102 -128h-87z" glyph-name="grave" horiz-adv-x="198" unicode="`"/><glyph d="M207 -10q-70 0 -119.5 41t-49.5 110q0 70 46 107q47 37 136 45q34 3 51.5 5.5t44 9.5t39 20.5t12.5 32.5q0 33 -28.5 53.5t-71.5 20.5q-53 0 -84 -26.5t-37 -65.5l-90 -1q8 75 64 122.5t143 47.5q90 0 141.5 -47.5t51.5 -122.5v-342h-89v67q-60 -77 -160 -77zM220 67 q54 -2 100 32t47 99l1 59q-32 -23 -129 -31q-109 -10 -109 -80q0 -36 25.5 -56.5t64.5 -22.5z" glyph-name="a" horiz-adv-x="519" unicode="a"/><glyph d="M321 -11q-57 0 -102 26.5t-63 60.5v-76h-83v700h83v-281q22 38 66 62t102 24q93 0 158.5 -70.5t65.5 -187.5t-68 -187.5t-159 -70.5zM308 70q66 0 107 50.5t41 130.5q0 77 -41 126t-107 49q-68 0 -110.5 -51.5t-42.5 -131.5q0 -76 42 -124.5t111 -48.5z" glyph-name="b" horiz-adv-x="586" unicode="b"/><glyph d="M270 -7q-101 0 -166.5 71.5t-65.5 185.5q0 115 66 187.5t170 72.5q83 0 142.5 -49t69.5 -126h-88q-9 43 -43.5 71.5t-82.5 28.5q-63 0 -103 -49.5t-40 -132.5t40 -132.5t103 -49.5q49 0 83.5 29t42.5 71h88q-11 -78 -71 -128t-145 -50z" glyph-name="c" horiz-adv-x="525" unicode="c"/><glyph d="M265 -11q-91 0 -159 70.5t-68 187.5t65.5 187.5t158.5 70.5q57 0 101 -24t67 -62v281h83v-700h-83v76q-18 -34 -63 -60.5t-102 -26.5zM277 70q69 0 111.5 48.5t42.5 124.5q0 80 -42.5 131.5t-111.5 51.5q-66 0 -107 -49t-41 -126q0 -80 41 -130.5t107 -50.5z" glyph-name="d" horiz-adv-x="586" unicode="d"/><glyph d="M273 -11q-107 0 -171 69.5t-64 187.5q0 116 64 188t170 72q107 0 167 -79t55 -203h-366v-1q0 -72 39.5 -115t106.5 -43q42 0 79.5 23.5t51.5 70.5h81q-11 -75 -69 -122.5t-144 -47.5zM131 301h271q-5 59 -39 94t-94 35q-59 0 -96 -35.5t-42 -93.5z" glyph-name="e" horiz-adv-x="533" unicode="e"/><glyph d="M82 0v426h-74v74h74v70q0 59 35.5 94.5t93.5 35.5h79l1 -77h-63q-32 0 -47 -16t-15 -53v-54h122v-74h-122v-426h-84z" glyph-name="f" horiz-adv-x="299" unicode="f"/><glyph d="M274 -208q-95 0 -155 50t-64 124l86 -1q10 -54 52 -75.5t83 -21.5q72 0 116 43t44 130v54q-23 -45 -72 -72.5t-105 -27.5q-101 0 -161 72t-60 186q0 112 63 185t161 73q54 0 102 -27t72 -71v87h84v-459q0 -123 -67 -186t-179 -63zM278 74q69 0 111.5 51.5t42.5 131.5 q0 76 -42.5 124.5t-111.5 48.5q-66 0 -107 -50.5t-41 -130.5q0 -77 41 -126t107 -49z" glyph-name="g" horiz-adv-x="588" unicode="g"/><glyph d="M73 0v700h86v-267q19 31 59.5 55.5t94.5 24.5q75 0 131 -51t56 -155v-307h-91v300q-1 64 -32 100t-81 36q-60 0 -98.5 -47t-38.5 -125v-264h-86z" glyph-name="h" unicode="h"/><glyph d="M68 594v106h97v-106h-97zM72 0v500h90v-500h-90z" glyph-name="i" horiz-adv-x="233" unicode="i"/><glyph d="M71 594v106h98v-106h-98zM-12 -177v82h21q31 0 50 19t19 57v519h85v-531q0 -68 -39 -107t-103 -39h-33z" glyph-name="j" horiz-adv-x="232" unicode="j"/><glyph d="M73 0v700h85v-419l207 219h106l-186 -197l206 -302l-98 -1l-164 240l-71 -74v-166h-85z" glyph-name="k" horiz-adv-x="509" unicode="k"/><glyph d="M73 0v700h89v-700h-89z" glyph-name="l" horiz-adv-x="235" unicode="l"/><glyph d="M73 0v500h86v-67q19 32 56.5 56t91.5 24q24 0 49 -6t58.5 -29.5t54.5 -63.5q25 45 69 72t103 27q75 0 131.5 -51.5t56.5 -154.5v-307h-91v300q0 66 -31 101t-82 35q-57 0 -94 -47t-37 -125v-264h-91v300q0 66 -31 101t-82 35q-57 0 -94 -47t-37 -125v-264h-86z" glyph-name="m" horiz-adv-x="897" unicode="m"/><glyph d="M73 0v500h86v-67q19 31 59.5 55.5t94.5 24.5q75 0 131 -51t56 -155v-307h-91v300q0 65 -31 100.5t-82 35.5q-58 0 -97.5 -47.5t-39.5 -124.5v-264h-86z" glyph-name="n" unicode="n"/><glyph d="M276 -5q-103 0 -170.5 72t-67.5 183q0 113 67.5 185t170.5 72q104 0 170.5 -72t66.5 -185q0 -111 -67.5 -183t-169.5 -72zM275 75q69 0 111 49t42 125q0 79 -40 128t-112 49q-69 0 -110 -49t-41 -127q0 -77 41 -126t109 -49z" glyph-name="o" horiz-adv-x="551" unicode="o"/><glyph d="M73 -200v700h83v-76q18 34 63 60.5t102 26.5q91 0 159 -70.5t68 -187.5t-65.5 -187.5t-158.5 -70.5q-58 0 -102 24t-66 62v-281h-83zM308 74q66 0 107 49t41 126q0 80 -41 130.5t-107 50.5q-69 0 -111 -48.5t-42 -124.5q0 -80 42.5 -131.5t110.5 -51.5z" glyph-name="p" horiz-adv-x="586" unicode="p"/><glyph d="M430 -200v281q-23 -38 -67 -62t-101 -24q-93 0 -158.5 70.5t-65.5 187.5t68 187.5t159 70.5q57 0 102 -26.5t63 -60.5v76h83v-700h-83zM277 74q69 0 111.5 51.5t42.5 131.5q0 76 -42.5 124.5t-111.5 48.5q-66 0 -107 -50.5t-41 -130.5q0 -77 41 -126t107 -49z" glyph-name="q" horiz-adv-x="586" unicode="q"/><glyph d="M73 0v500h84v-65q8 16 21 30.5t48 29t82 13.5h14v-87l-10 -1q-155 4 -155 -149v-271h-84z" glyph-name="r" horiz-adv-x="334" unicode="r"/><glyph d="M244 -11q-87 0 -147 44.5t-64 126.5h84q7 -47 41.5 -72t85.5 -25q50 0 76 23.5t26 58.5q0 30 -24 48.5t-82 27.5q-108 16 -150 54t-42 93q0 58 50.5 99.5t128.5 41.5q81 0 137 -42.5t60 -127.5h-81q-10 95 -114 95q-39 0 -67 -18.5t-28 -48.5q0 -57 106 -72t150.5 -51 t44.5 -99q0 -69 -55 -112.5t-136 -43.5z" glyph-name="s" horiz-adv-x="468" unicode="s"/><glyph d="M204 0q-58 0 -93.5 35.5t-35.5 94.5v296h-77v74h77v151h84v-151h123v-74h-123v-280q0 -36 14.5 -52t47.5 -16h63l-1 -78h-79z" glyph-name="t" horiz-adv-x="302" unicode="t"/><glyph d="M255 -13q-75 0 -131 51t-56 155v307h91v-300q0 -63 31.5 -99.5t81.5 -36.5q60 0 98.5 47t38.5 125v264h86v-500h-86v67q-20 -31 -60.5 -55.5t-93.5 -24.5z" glyph-name="u" unicode="u"/><glyph d="M207 0l-199 500h92l148 -390l146 390h94l-200 -500h-81z" glyph-name="v" horiz-adv-x="496" unicode="v"/><glyph d="M173 0l-160 500h95l112 -390l110 390h77l112 -390l110 390h96l-160 -500h-93l-102 356l-103 -356h-94z" glyph-name="w" horiz-adv-x="738" unicode="w"/><glyph d="M18 0l182 250l-182 250h101l131 -181l129 181h101l-182 -250l182 -250h-101l-130 182l-130 -182h-101z" glyph-name="x" horiz-adv-x="498" unicode="x"/><glyph d="M40 -200l-1 79h41q66 0 94 71l30 80l-196 470h95l145 -364l139 364h95l-224 -569q-25 -66 -65.5 -98.5t-106.5 -32.5h-46z" glyph-name="y" horiz-adv-x="490" unicode="y"/><glyph d="M38 0v79l297 342h-297v80l401 -1v-79l-295 -342h295v-79h-401z" glyph-name="z" horiz-adv-x="487" unicode="z"/><glyph d="M242 -310q-43 0 -77.5 38t-34.5 90v237q0 74 -13.5 107t-61.5 57v61q48 25 61.5 58.5t13.5 104.5v237q0 56 33.5 91.5t77.5 35.5h25v-65q-37 0 -52.5 -17.5t-15.5 -54.5v-242q0 -64 -14 -106t-59 -73q45 -30 59 -72.5t14 -106.5v-245q0 -36 16 -52.5t52 -16.5v-66h-24z " glyph-name="braceleft" horiz-adv-x="319" unicode="{"/><glyph d="M109 -150v900h69v-900h-69z" glyph-name="bar" horiz-adv-x="287" unicode="|"/><glyph d="M55 -310v65q37 0 52.5 17t15.5 54v243q0 64 14 106.5t59 72.5q-45 31 -59 73t-14 106v244q0 36 -16 53t-52 17v66h24q43 0 77.5 -37t34.5 -91v-237q0 -72 13.5 -105.5t61.5 -57.5v-61q-49 -25 -62 -58t-13 -106v-237q0 -54 -34 -90.5t-77 -36.5h-25z" glyph-name="braceright" horiz-adv-x="319" unicode="}"/><glyph d="M90 437v111h104v-111h-104zM96 -202l12 544h71l12 -544h-95z" glyph-name="exclamdown" horiz-adv-x="285" unicode="¡"/><glyph d="M239 0v76q-89 11 -144 80.5t-55 173.5q0 105 55 175t144 83v77h73v-77q71 -11 119.5 -58t56.5 -115h-88q-9 43 -43.5 71.5t-82.5 28.5q-63 0 -103 -49.5t-40 -132.5q0 -82 40.5 -132t102.5 -50q49 0 83.5 29t42.5 71h88q-9 -68 -57.5 -115.5t-119.5 -58.5v-77h-72z" glyph-name="cent" horiz-adv-x="536" unicode="¢"/><glyph d="M556 142q-4 -70 -49.5 -110.5t-106.5 -40.5q-47 0 -115 34.5t-98 34.5q-26 0 -46 -15.5t-22 -45.5h-76q-1 48 22.5 82.5t66.5 48.5q17 33 18 72q1 52 -17 108h-82v72h67q-26 89 -25 144q2 85 64 143t154 58q91 0 153 -51t69 -139h-82q-8 62 -48.5 89.5t-94.5 27.5 q-58 -1 -98 -38t-41 -94q0 -34 27 -140h220v-72h-200q15 -72 14 -109q-1 -34 -13 -71q26 -5 87.5 -33t86.5 -28q38 0 58.5 19.5t22.5 53.5h84z" glyph-name="sterling" horiz-adv-x="600" unicode="£"/><glyph d="M302 0v132h-206v70h206v73h-206v71h186l-238 374h98l204 -328l210 328h92l-237 -374h187v-71h-208v-73h208v-70h-208v-132h-88z" glyph-name="yen" horiz-adv-x="663" unicode="¥"/><glyph d="M91 390v360h75v-360h-75zM91 -150v360h75v-360h-75z" glyph-name="brokenbar" horiz-adv-x="287" unicode="¦"/><glyph d="M75 595v111h103v-111h-103zM252 595v111h104v-111h-104z" glyph-name="dieresis" horiz-adv-x="53" unicode="¨"/><glyph d="M439 -15q-161 0 -275.5 114t-114.5 275t114.5 275.5t275.5 114.5t275 -114.5t114 -275.5q0 -160 -114 -274.5t-275 -114.5zM439 35q142 0 241 99t99 240q0 142 -99 241t-241 99t-241 -99t-99 -241q0 -141 99 -240t241 -99zM437 146q-89 0 -148 64.5t-58 161.5 q1 101 59.5 165.5t150.5 64.5q76 0 127.5 -43.5t62.5 -111.5h-68q-9 40 -43 67.5t-80 27.5q-62 0 -101.5 -48t-39.5 -123q0 -72 38.5 -117.5t99.5 -45.5q49 0 83 28t43 68h68q-12 -69 -64 -113.5t-130 -44.5z" glyph-name="copyright" horiz-adv-x="876" unicode="©"/><glyph d="M243 95l-152 184l152 184h82l-152 -184l152 -184h-82zM439 95l-152 184l152 184h83l-152 -184l152 -184h-83z" glyph-name="guillemotleft" horiz-adv-x="612" unicode="«"/><glyph d="M94 224v62h350v-62h-350z" glyph-name="uni00AD" horiz-adv-x="590" unicode="­"/><glyph d="M438 -14q-160 0 -274.5 114t-114.5 275t114.5 275t274.5 114t274.5 -114t114.5 -275t-114.5 -275t-274.5 -114zM438 35q142 0 241.5 99t99.5 241t-99.5 241t-241.5 99t-241 -99t-99 -241t99 -241t241 -99zM543 164q-7 15 -13 94q-2 26 -4.5 39t-10 28t-23.5 20.5t-43 5.5 h-93v-186h-61v430h179q58 0 93 -33t35 -85q0 -36 -18 -63.5t-44 -38.5q47 -18 53 -101q1 -8 2 -21.5t1.5 -19t1 -15t1.5 -13.5t2 -11t2.5 -11t3.5 -9l4 -10h-68zM356 405h107q35 0 57 17.5t22 50.5q0 68 -79 68h-107v-136z" glyph-name="registered" horiz-adv-x="876" unicode="®"/><glyph d="M34 595v70h310v-70h-310z" glyph-name="macron" horiz-adv-x="67" unicode="¯"/><glyph d="M248 492q-55 0 -94.5 39.5t-39.5 94.5q0 56 39 95t95 39q55 0 94.5 -39.5t39.5 -94.5t-39.5 -94.5t-94.5 -39.5zM248 555q31 0 51 20t20 51t-20 51t-51 20t-51 -20t-20 -51t20 -51t51 -20z" glyph-name="degree" horiz-adv-x="495" unicode="°"/><glyph d="M25 585h-87l102 128h110z" glyph-name="acute" horiz-adv-x="198" unicode="´"/><glyph d="M91 249v111h104v-111h-104z" glyph-name="periodcentered" horiz-adv-x="270" unicode="·"/><glyph d="M138 -260q-35 0 -69 20t-47 48l51 20q9 -14 28 -24.5t37 -10.5q21 0 35.5 15.5t14.5 36.5q0 42 -41 47q-21 5 -51 -8l-43 26l46 90h55l-33 -64q17 4 35 2q39 -3 63 -28.5t24 -64.5q0 -44 -30.5 -74.5t-74.5 -30.5z" glyph-name="cedilla" horiz-adv-x="53" unicode="¸"/><glyph d="M90 95l152 184l-152 184h82l152 -184l-152 -184h-82zM286 95l152 184l-152 184h83l152 -184l-152 -184h-83z" glyph-name="guillemotright" horiz-adv-x="612" unicode="»"/><glyph d="M226 438v111h104v-111h-104zM274 -200q-92 0 -154.5 58.5t-62.5 137.5q0 42 18.5 76.5t44.5 58.5t52.5 47.5t45 57t18.5 73.5v61h84v-52q0 -56 -18.5 -98t-45.5 -67.5t-54 -47t-45.5 -49t-18.5 -60.5q0 -54 41 -88t93 -34q51 0 93 34t45 96h80q1 -86 -63 -145t-153 -59z " glyph-name="questiondown" horiz-adv-x="528" unicode="¿"/><glyph d="M311 748l-125 128h110l102 -128h-87zM128 0l-100 1l268 699h92l268 -700h-100l-69 184h-290zM223 267h238l-119 326z" glyph-name="Agrave" horiz-adv-x="684" unicode="À"/><glyph d="M376 747h-87l103 128h109zM128 0l-100 1l268 699h92l268 -700h-100l-69 184h-290zM223 267h238l-119 326z" glyph-name="Aacute" horiz-adv-x="684" unicode="Á"/><glyph d="M276 887h119l104 -143h-93l-70 92l-69 -92h-94zM128 0l-100 1l268 699h92l268 -700h-100l-69 184h-290zM223 267h238l-119 326z" glyph-name="Acircumflex" horiz-adv-x="684" unicode="Â"/><glyph d="M410 744q-59 0 -97 56q-14 24 -37 24q-32 0 -35 -42q0 -12 5 -30h-69q-2 9 -2 26q-1 50 26.5 81.5t71.5 31.5q61 0 97 -56q14 -24 38 -24q18 0 27 15t7 41q0 2 -2 7t-2 8h68q2 -10 2 -14q6 -54 -21.5 -89t-76.5 -35zM128 0l-100 1l268 699h92l268 -700h-100l-69 184h-290 zM223 267h238l-119 326z" glyph-name="Atilde" horiz-adv-x="684" unicode="Ã"/><glyph d="M200 755v111h103v-111h-103zM377 755v111h104v-111h-104zM128 0l-100 1l268 699h92l268 -700h-100l-69 184h-290zM223 267h238l-119 326z" glyph-name="Adieresis" horiz-adv-x="684" unicode="Ä"/><glyph d="M343 742q-39 0 -67 28t-28 66q0 39 27.5 66.5t67.5 27.5q38 0 65 -27.5t27 -66.5q1 -38 -26.5 -66t-65.5 -28zM343 792q19 0 31.5 12t12.5 32t-12.5 33t-31.5 13q-20 0 -32.5 -13t-12.5 -33t12.5 -32t32.5 -12zM128 0l-100 1l268 699h92l268 -700h-100l-69 184h-290z M223 267h238l-119 326z" glyph-name="Aring" horiz-adv-x="684" unicode="Å"/><glyph d="M860 615h-360v-219h339v-83h-339v-228h360v-85h-447v186h-220l-70 -186l-95 1l262 699h570v-85zM223 273h190v340h-67z" glyph-name="AE" horiz-adv-x="898" unicode="Æ"/><glyph d="M368 83q79 0 134.5 46t68.5 110h98q-17 -105 -96.5 -174t-200.5 -70l-15 -30q21 4 35 1q38 -3 62.5 -28.5t24.5 -63.5q0 -44 -30.5 -74.5t-74.5 -30.5q-36 0 -69.5 19.5t-46.5 48.5l50 19q10 -14 29 -24t37 -10q21 0 35.5 15t14.5 37q0 41 -41 46q-23 5 -51 -8l-44 27 l31 60q-119 18 -195.5 114t-75.5 234q1 158 92.5 258.5t233.5 100.5q120 0 199.5 -68t95.5 -173h-98q-13 65 -67.5 109.5t-131.5 44.5q-100 0 -163 -77.5t-63 -196.5q0 -114 62 -188t160 -74z" glyph-name="Ccedilla" horiz-adv-x="712" unicode="Ç"/><glyph d="M277 748l-125 128h110l102 -128h-87zM83 0v700h447v-85h-360v-219h339v-83h-339v-228h360v-85h-447z" glyph-name="Egrave" unicode="È"/><glyph d="M342 747h-87l103 128h109zM83 0v700h447v-85h-360v-219h339v-83h-339v-228h360v-85h-447z" glyph-name="Eacute" unicode="É"/><glyph d="M243 887h119l104 -143h-93l-70 92l-69 -92h-94zM83 0v700h447v-85h-360v-219h339v-83h-339v-228h360v-85h-447z" glyph-name="Ecircumflex" unicode="Ê"/><glyph d="M166 755v111h103v-111h-103zM343 755v111h104v-111h-104zM83 0v700h447v-85h-360v-219h339v-83h-339v-228h360v-85h-447z" glyph-name="Edieresis" unicode="Ë"/><glyph d="M102 748l-125 128h110l102 -128h-87zM88 0v700h91v-700h-91z" glyph-name="Igrave" horiz-adv-x="267" unicode="Ì"/><glyph d="M168 747h-87l103 128h109zM88 0v700h91v-700h-91z" glyph-name="Iacute" horiz-adv-x="267" unicode="Í"/><glyph d="M68 887h119l104 -143h-93l-70 92l-69 -92h-94zM88 0v700h91v-700h-91z" glyph-name="Icircumflex" horiz-adv-x="268" unicode="Î"/><glyph d="M-9 755v111h104v-111h-104zM169 755v111h104v-111h-104zM88 0v700h91v-700h-91z" glyph-name="Idieresis" horiz-adv-x="267" unicode="Ï"/><glyph d="M392 702q143 1 234 -96t91 -251q0 -156 -88 -255t-227 -100l-263 -2v317h-56v81h56v304zM388 86q107 1 174 74t67 191q0 119 -66 192t-171 71l-168 -2v-216h77v-81h-77v-231z" glyph-name="Eth" horiz-adv-x="765" unicode="Ð"/><glyph d="M426 744q-59 0 -97 56q-14 24 -37 24q-32 0 -35 -42q0 -12 5 -30h-69q-2 9 -2 26q-1 50 26.5 81.5t71.5 31.5q61 0 97 -56q14 -24 38 -24q18 0 27 15t7 41q-1 2 -2.5 7t-1.5 8h68q2 -10 2 -14q6 -54 -21.5 -89t-76.5 -35zM519 0l-351 567v-567h-85v700h107l357 -578v578 h85v-701z" glyph-name="Ntilde" horiz-adv-x="715" unicode="Ñ"/><glyph d="M344 748l-125 128h110l102 -128h-87zM376 -10q-139 0 -233.5 103.5t-94.5 256.5q0 155 93.5 256.5t234.5 101.5t234.5 -102t93.5 -258q0 -153 -94.5 -255.5t-233.5 -102.5zM375 77q104 0 171 76.5t67 191.5q0 120 -66.5 199t-170.5 79t-169.5 -78.5t-65.5 -197.5 q0 -116 66 -193t168 -77z" glyph-name="Ograve" horiz-adv-x="752" unicode="Ò"/><glyph d="M410 747h-87l103 128h109zM376 -10q-139 0 -233.5 103.5t-94.5 256.5q0 155 93.5 256.5t234.5 101.5t234.5 -102t93.5 -258q0 -153 -94.5 -255.5t-233.5 -102.5zM375 77q104 0 171 76.5t67 191.5q0 120 -66.5 199t-170.5 79t-169.5 -78.5t-65.5 -197.5q0 -116 66 -193 t168 -77z" glyph-name="Oacute" horiz-adv-x="752" unicode="Ó"/><glyph d="M310 887h119l104 -143h-93l-70 92l-69 -92h-94zM376 -10q-139 0 -233.5 103.5t-94.5 256.5q0 155 93.5 256.5t234.5 101.5t234.5 -102t93.5 -258q0 -153 -94.5 -255.5t-233.5 -102.5zM375 77q104 0 171 76.5t67 191.5q0 120 -66.5 199t-170.5 79t-169.5 -78.5 t-65.5 -197.5q0 -116 66 -193t168 -77z" glyph-name="Ocircumflex" horiz-adv-x="752" unicode="Ô"/><glyph d="M444 744q-59 0 -97 56q-14 24 -37 24q-32 0 -35 -42q0 -12 5 -30h-69q-2 9 -2 26q-1 50 26.5 81.5t71.5 31.5q61 0 97 -56q14 -24 38 -24q18 0 27 15t7 41q-1 2 -2.5 7t-1.5 8h68q2 -10 2 -14q6 -54 -21.5 -89t-76.5 -35zM376 -10q-139 0 -233.5 103.5t-94.5 256.5 q0 155 93.5 256.5t234.5 101.5t234.5 -102t93.5 -258q0 -153 -94.5 -255.5t-233.5 -102.5zM375 77q104 0 171 76.5t67 191.5q0 120 -66.5 199t-170.5 79t-169.5 -78.5t-65.5 -197.5q0 -116 66 -193t168 -77z" glyph-name="Otilde" horiz-adv-x="752" unicode="Õ"/><glyph d="M233 755v111h103v-111h-103zM410 755v111h104v-111h-104zM376 -10q-139 0 -233.5 103.5t-94.5 256.5q0 155 93.5 256.5t234.5 101.5t234.5 -102t93.5 -258q0 -153 -94.5 -255.5t-233.5 -102.5zM375 77q104 0 171 76.5t67 191.5q0 120 -66.5 199t-170.5 79t-169.5 -78.5 t-65.5 -197.5q0 -116 66 -193t168 -77z" glyph-name="Odieresis" horiz-adv-x="752" unicode="Ö"/><glyph d="M191 60l-61 62l188 188l-188 189l61 61l189 -189l189 189l61 -61l-189 -189l189 -188l-61 -62l-189 189z" glyph-name="multiply" horiz-adv-x="731" unicode="×"/><glyph d="M705 700l-87 -103q86 -100 86 -249q0 -153 -94.5 -255.5t-233.5 -102.5q-120 0 -206 77l-57 -67h-93l101 119q-73 98 -73 231q0 155 93.5 256.5t234.5 101.5q106 0 190 -62l46 54h93zM141 347q0 -90 40 -156l329 388q-58 44 -134 44q-104 0 -169.5 -78.5t-65.5 -197.5z M613 345q0 105 -54 183l-333 -394q63 -57 149 -57q104 0 171 76.5t67 191.5z" glyph-name="Oslash" horiz-adv-x="768" unicode="Ø"/><glyph d="M319 748l-125 128h110l102 -128h-87zM347 -8q-124 0 -199 74t-75 199v435h88v-435q0 -89 50.5 -139.5t135.5 -50.5t135.5 50.5t50.5 139.5v435h89v-435q0 -125 -75 -199t-200 -74z" glyph-name="Ugrave" horiz-adv-x="695" unicode="Ù"/><glyph d="M385 747h-87l103 128h109zM347 -8q-124 0 -199 74t-75 199v435h88v-435q0 -89 50.5 -139.5t135.5 -50.5t135.5 50.5t50.5 139.5v435h89v-435q0 -125 -75 -199t-200 -74z" glyph-name="Uacute" horiz-adv-x="695" unicode="Ú"/><glyph d="M285 887h119l104 -143h-93l-70 92l-69 -92h-94zM347 -8q-124 0 -199 74t-75 199v435h88v-435q0 -89 50.5 -139.5t135.5 -50.5t135.5 50.5t50.5 139.5v435h89v-435q0 -125 -75 -199t-200 -74z" glyph-name="Ucircumflex" horiz-adv-x="695" unicode="Û"/><glyph d="M208 755v111h103v-111h-103zM385 755v111h104v-111h-104zM347 -8q-124 0 -199 74t-75 199v435h88v-435q0 -89 50.5 -139.5t135.5 -50.5t135.5 50.5t50.5 139.5v435h89v-435q0 -125 -75 -199t-200 -74z" glyph-name="Udieresis" horiz-adv-x="695" unicode="Ü"/><glyph d="M352 747h-87l103 128h109zM274 0v286l-256 414h97l203 -334l209 334h91l-256 -414v-286h-88z" glyph-name="Yacute" horiz-adv-x="636" unicode="Ý"/><glyph d="M83 0v700h86v-135l201 1q92 -1 148.5 -60t56.5 -150t-58 -148.5t-153 -57.5h-194v-150h-87zM170 227h183q60 0 98 34.5t38 94.5q0 62 -38 97t-98 35h-183v-261z" glyph-name="Thorn" horiz-adv-x="603" unicode="Þ"/><glyph d="M254 -4l-1 85h89q62 0 102.5 30.5t40.5 80.5q0 60 -47 93t-133 33h-29v78h26q76 0 123 38t47 95q0 51 -41 82.5t-101 31.5q-73 0 -115 -43t-42 -114v-489h-90v489q0 109 68.5 173t184.5 64q101 0 166 -52.5t65 -138.5q0 -55 -28.5 -99t-78.5 -68q58 -21 90 -66.5 t32 -105.5q0 -88 -66.5 -142.5t-173.5 -54.5h-88z" glyph-name="germandbls" horiz-adv-x="625" unicode="ß"/><glyph d="M230 556l-125 128h110l102 -128h-87zM207 -10q-70 0 -119.5 41t-49.5 110q0 70 46 107q47 37 136 45q34 3 51.5 5.5t44 9.5t39 20.5t12.5 32.5q0 33 -28.5 53.5t-71.5 20.5q-53 0 -84 -26.5t-37 -65.5l-90 -1q8 75 64 122.5t143 47.5q90 0 141.5 -47.5t51.5 -122.5v-342 h-89v67q-60 -77 -160 -77zM220 67q54 -2 100 32t47 99l1 59q-32 -23 -129 -31q-109 -10 -109 -80q0 -36 25.5 -56.5t64.5 -22.5z" glyph-name="agrave" horiz-adv-x="519" unicode="à"/><glyph d="M295 554h-87l103 128h109zM207 -10q-70 0 -119.5 41t-49.5 110q0 70 46 107q47 37 136 45q34 3 51.5 5.5t44 9.5t39 20.5t12.5 32.5q0 33 -28.5 53.5t-71.5 20.5q-53 0 -84 -26.5t-37 -65.5l-90 -1q8 75 64 122.5t143 47.5q90 0 141.5 -47.5t51.5 -122.5v-342h-89v67 q-60 -77 -160 -77zM220 67q54 -2 100 32t47 99l1 59q-32 -23 -129 -31q-109 -10 -109 -80q0 -36 25.5 -56.5t64.5 -22.5z" glyph-name="aacute" horiz-adv-x="519" unicode="á"/><glyph d="M196 694h119l104 -143h-93l-70 92l-69 -92h-94zM207 -10q-70 0 -119.5 41t-49.5 110q0 70 46 107q47 37 136 45q34 3 51.5 5.5t44 9.5t39 20.5t12.5 32.5q0 33 -28.5 53.5t-71.5 20.5q-53 0 -84 -26.5t-37 -65.5l-90 -1q8 75 64 122.5t143 47.5q90 0 141.5 -47.5 t51.5 -122.5v-342h-89v67q-60 -77 -160 -77zM220 67q54 -2 100 32t47 99l1 59q-32 -23 -129 -31q-109 -10 -109 -80q0 -36 25.5 -56.5t64.5 -22.5z" glyph-name="acircumflex" horiz-adv-x="519" unicode="â"/><glyph d="M329 551q-59 0 -97 56q-14 24 -37 24q-32 0 -35 -42q0 -12 5 -30h-69q-2 9 -2 26q-1 50 26.5 81.5t71.5 31.5q61 0 97 -56q14 -24 38 -24q18 0 27 15t7 41q-1 3 -2 8t-2 7h68q2 -10 2 -14q6 -54 -21.5 -89t-76.5 -35zM207 -10q-70 0 -119.5 41t-49.5 110q0 70 46 107 q47 37 136 45q34 3 51.5 5.5t44 9.5t39 20.5t12.5 32.5q0 33 -28.5 53.5t-71.5 20.5q-53 0 -84 -26.5t-37 -65.5l-90 -1q8 75 64 122.5t143 47.5q90 0 141.5 -47.5t51.5 -122.5v-342h-89v67q-60 -77 -160 -77zM220 67q54 -2 100 32t47 99l1 59q-32 -23 -129 -31 q-109 -10 -109 -80q0 -36 25.5 -56.5t64.5 -22.5z" glyph-name="atilde" horiz-adv-x="519" unicode="ã"/><glyph d="M119 562v111h103v-111h-103zM296 562v111h104v-111h-104zM207 -10q-70 0 -119.5 41t-49.5 110q0 70 46 107q47 37 136 45q34 3 51.5 5.5t44 9.5t39 20.5t12.5 32.5q0 33 -28.5 53.5t-71.5 20.5q-53 0 -84 -26.5t-37 -65.5l-90 -1q8 75 64 122.5t143 47.5 q90 0 141.5 -47.5t51.5 -122.5v-342h-89v67q-60 -77 -160 -77zM220 67q54 -2 100 32t47 99l1 59q-32 -23 -129 -31q-109 -10 -109 -80q0 -36 25.5 -56.5t64.5 -22.5z" glyph-name="adieresis" horiz-adv-x="519" unicode="ä"/><glyph d="M262 549q-40 0 -67.5 27.5t-27.5 66.5t27.5 66.5t67.5 27.5q38 0 65 -27.5t27 -66.5q1 -38 -26.5 -66t-65.5 -28zM262 599q20 0 32 12.5t12 31.5q0 20 -12.5 33t-31.5 13q-20 0 -32.5 -13t-12.5 -33t12.5 -32t32.5 -12zM207 -10q-70 0 -119.5 41t-49.5 110q0 70 46 107 q47 37 136 45q34 3 51.5 5.5t44 9.5t39 20.5t12.5 32.5q0 33 -28.5 53.5t-71.5 20.5q-53 0 -84 -26.5t-37 -65.5l-90 -1q8 75 64 122.5t143 47.5q90 0 141.5 -47.5t51.5 -122.5v-342h-89v67q-60 -77 -160 -77zM220 67q54 -2 100 32t47 99l1 59q-32 -23 -129 -31 q-109 -10 -109 -80q0 -36 25.5 -56.5t64.5 -22.5z" glyph-name="aring" horiz-adv-x="519" unicode="å"/><glyph d="M830 224h-367v-1q0 -72 40 -115t107 -43q42 0 79.5 23.5t50.5 70.5h82q-11 -75 -69 -122.5t-144 -47.5q-132 0 -196 102q-16 -38 -72.5 -69.5t-125.5 -31.5q-70 0 -123.5 41t-53.5 110q0 70 46 107q47 37 136 45q34 3 51.5 5.5t44 9.5t39 20.5t12.5 32.5q0 33 -28.5 53.5 t-71.5 20.5q-53 0 -84 -26.5t-37 -65.5l-90 -1q8 75 64 122.5t143 47.5q122 0 171 -82q65 76 173 76t168 -79t55 -203zM605 430q-59 0 -96.5 -35.5t-42.5 -93.5h272q-5 59 -39.5 94t-93.5 35zM367 198l1 59q-32 -23 -129 -31q-109 -9 -109 -80q0 -36 25.5 -56.5t64.5 -22.5 q54 -3 100 31.5t47 99.5z" glyph-name="ae" horiz-adv-x="868" unicode="æ"/><glyph d="M272 71q49 0 83.5 29t42.5 71h88q-11 -76 -68 -125.5t-138 -52.5l-16 -31q17 4 35 2q39 -3 63 -28.5t24 -64.5q0 -44 -30.5 -74.5t-74.5 -30.5q-35 0 -69 20t-47 48l51 20q9 -14 28 -24.5t37 -10.5q21 0 35.5 15.5t14.5 36.5q0 42 -41 47q-21 5 -51 -8l-43 26l31 61 q-84 15 -136.5 83.5t-52.5 169.5q0 115 66 187.5t170 72.5q83 0 142.5 -49t69.5 -126h-88q-9 43 -43.5 71.5t-82.5 28.5q-63 0 -103 -49.5t-40 -132.5t40 -132.5t103 -49.5z" glyph-name="ccedilla" horiz-adv-x="525" unicode="ç"/><glyph d="M238 552l-125 128h110l102 -128h-87zM273 -11q-107 0 -171 69.5t-64 187.5q0 116 64 188t170 72q107 0 167 -79t55 -203h-366v-1q0 -72 39.5 -115t106.5 -43q42 0 79.5 23.5t51.5 70.5h81q-11 -75 -69 -122.5t-144 -47.5zM131 301h271q-5 59 -39 94t-94 35 q-59 0 -96 -35.5t-42 -93.5z" glyph-name="egrave" horiz-adv-x="533" unicode="è"/><glyph d="M303 551h-87l103 128h109zM273 -11q-107 0 -171 69.5t-64 187.5q0 116 64 188t170 72q107 0 167 -79t55 -203h-366v-1q0 -72 39.5 -115t106.5 -43q42 0 79.5 23.5t51.5 70.5h81q-11 -75 -69 -122.5t-144 -47.5zM131 301h271q-5 59 -39 94t-94 35q-59 0 -96 -35.5 t-42 -93.5z" glyph-name="eacute" horiz-adv-x="533" unicode="é"/><glyph d="M204 691h119l104 -143h-93l-70 92l-69 -92h-94zM273 -11q-107 0 -171 69.5t-64 187.5q0 116 64 188t170 72q107 0 167 -79t55 -203h-366v-1q0 -72 39.5 -115t106.5 -43q42 0 79.5 23.5t51.5 70.5h81q-11 -75 -69 -122.5t-144 -47.5zM131 301h271q-5 59 -39 94t-94 35 q-59 0 -96 -35.5t-42 -93.5z" glyph-name="ecircumflex" horiz-adv-x="533" unicode="ê"/><glyph d="M127 559v111h103v-111h-103zM304 559v111h104v-111h-104zM273 -11q-107 0 -171 69.5t-64 187.5q0 116 64 188t170 72q107 0 167 -79t55 -203h-366v-1q0 -72 39.5 -115t106.5 -43q42 0 79.5 23.5t51.5 70.5h81q-11 -75 -69 -122.5t-144 -47.5zM131 301h271q-5 59 -39 94 t-94 35q-59 0 -96 -35.5t-42 -93.5z" glyph-name="edieresis" horiz-adv-x="533" unicode="ë"/><glyph d="M98 548l-125 128h110l103 -128h-88zM85 0v500h89v-500h-89z" glyph-name="igrave" horiz-adv-x="232" unicode="ì"/><glyph d="M131 547h-88l103 128h110zM52 0v500h89v-500h-89z" glyph-name="iacute" horiz-adv-x="256" unicode="í"/><glyph d="M70 687h119l104 -143h-94l-69 92l-70 -92h-93zM91 0v500h89v-500h-89z" glyph-name="icircumflex" horiz-adv-x="281" unicode="î"/><glyph d="M-20 555v111h104v-111h-104zM158 555v111h104v-111h-104zM78 0v500h90v-500h-90z" glyph-name="idieresis" horiz-adv-x="264" unicode="ï"/><glyph d="M594 627v-75h-81v-552h-83v76q-18 -34 -63 -60.5t-102 -26.5q-91 0 -159 70.5t-68 187.5t65.5 187.5t158.5 70.5q57 0 101 -24t67 -62v133h-87v75h87v73h83v-73h81zM277 70q69 0 111.5 48.5t42.5 124.5q0 80 -42.5 131.5t-111.5 51.5q-66 0 -107 -49t-41 -126 q0 -80 41 -130.5t107 -50.5z" glyph-name="eth" horiz-adv-x="667" unicode="ð"/><glyph d="M358 551q-59 0 -97 56q-14 24 -37 24q-32 0 -35 -42q0 -12 5 -30h-69q-2 9 -2 26q-1 50 26.5 81.5t71.5 31.5q61 0 97 -56q14 -24 38 -24q18 0 27 15t7 41q0 3 -1.5 8t-2.5 7h68q2 -10 2 -14q6 -54 -21.5 -89t-76.5 -35zM73 0v500h86v-67q19 31 59.5 55.5t94.5 24.5 q75 0 131 -51t56 -155v-307h-91v300q0 65 -31 100.5t-82 35.5q-58 0 -97.5 -47.5t-39.5 -124.5v-264h-86z" glyph-name="ntilde" unicode="ñ"/><glyph d="M244 548l-125 128h110l102 -128h-87zM276 -5q-103 0 -170.5 72t-67.5 183q0 113 67.5 185t170.5 72q104 0 170.5 -72t66.5 -185q0 -111 -67.5 -183t-169.5 -72zM275 75q69 0 111 49t42 125q0 79 -40 128t-112 49q-69 0 -110 -49t-41 -127q0 -77 41 -126t109 -49z" glyph-name="ograve" horiz-adv-x="551" unicode="ò"/><glyph d="M310 547h-87l103 128h109zM276 -5q-103 0 -170.5 72t-67.5 183q0 113 67.5 185t170.5 72q104 0 170.5 -72t66.5 -185q0 -111 -67.5 -183t-169.5 -72zM275 75q69 0 111 49t42 125q0 79 -40 128t-112 49q-69 0 -110 -49t-41 -127q0 -77 41 -126t109 -49z" glyph-name="oacute" horiz-adv-x="551" unicode="ó"/><glyph d="M210 687h119l104 -143h-93l-70 92l-69 -92h-94zM276 -5q-103 0 -170.5 72t-67.5 183q0 113 67.5 185t170.5 72q104 0 170.5 -72t66.5 -185q0 -111 -67.5 -183t-169.5 -72zM275 75q69 0 111 49t42 125q0 79 -40 128t-112 49q-69 0 -110 -49t-41 -127q0 -77 41 -126 t109 -49z" glyph-name="ocircumflex" horiz-adv-x="551" unicode="ô"/><glyph d="M344 544q-59 0 -97 56q-14 24 -37 24q-32 0 -35 -42q0 -12 5 -30h-69q-2 9 -2 26q-1 50 26.5 81.5t71.5 31.5q61 0 97 -56q14 -24 38 -24q18 0 27 15t7 41q0 2 -2 7t-2 8h68q2 -10 2 -14q6 -54 -21.5 -89t-76.5 -35zM276 -5q-103 0 -170.5 72t-67.5 183q0 113 67.5 185 t170.5 72q104 0 170.5 -72t66.5 -185q0 -111 -67.5 -183t-169.5 -72zM275 75q69 0 111 49t42 125q0 79 -40 128t-112 49q-69 0 -110 -49t-41 -127q0 -77 41 -126t109 -49z" glyph-name="otilde" horiz-adv-x="551" unicode="õ"/><glyph d="M133 555v111h103v-111h-103zM310 555v111h104v-111h-104zM276 -5q-103 0 -170.5 72t-67.5 183q0 113 67.5 185t170.5 72q104 0 170.5 -72t66.5 -185q0 -111 -67.5 -183t-169.5 -72zM275 75q69 0 111 49t42 125q0 79 -40 128t-112 49q-69 0 -110 -49t-41 -127 q0 -77 41 -126t109 -49z" glyph-name="odieresis" horiz-adv-x="551" unicode="ö"/><glyph d="M312 415v111h103v-111h-103zM96 252v71h539v-71h-539zM312 44v111h103v-111h-103z" glyph-name="divide" horiz-adv-x="727" unicode="÷"/><glyph d="M535 500l-74 -82q52 -69 52 -168q0 -111 -67.5 -183t-169.5 -72q-86 0 -149 52l-42 -47h-80l81 90q-48 69 -48 160q0 113 67.5 185t170.5 72q82 0 143 -47l36 40h80zM125 250q0 -52 20 -94l219 243q-37 27 -88 27q-69 0 -110 -49t-41 -127zM428 249q0 61 -24 105 l-222 -246q38 -33 93 -33q69 0 111 49t42 125z" glyph-name="oslash" horiz-adv-x="571" unicode="ø"/><glyph d="M252 548l-125 128h110l102 -128h-87zM255 -13q-75 0 -131 51t-56 155v307h91v-300q0 -63 31.5 -99.5t81.5 -36.5q60 0 98.5 47t38.5 125v264h86v-500h-86v67q-20 -31 -60.5 -55.5t-93.5 -24.5z" glyph-name="ugrave" unicode="ù"/><glyph d="M317 547h-87l103 128h109zM255 -13q-75 0 -131 51t-56 155v307h91v-300q0 -63 31.5 -99.5t81.5 -36.5q60 0 98.5 47t38.5 125v264h86v-500h-86v67q-20 -31 -60.5 -55.5t-93.5 -24.5z" glyph-name="uacute" unicode="ú"/><glyph d="M218 687h119l104 -143h-93l-70 92l-69 -92h-94zM255 -13q-75 0 -131 51t-56 155v307h91v-300q0 -63 31.5 -99.5t81.5 -36.5q60 0 98.5 47t38.5 125v264h86v-500h-86v67q-20 -31 -60.5 -55.5t-93.5 -24.5z" glyph-name="ucircumflex" unicode="û"/><glyph d="M141 555v111h103v-111h-103zM318 555v111h104v-111h-104zM255 -13q-75 0 -131 51t-56 155v307h91v-300q0 -63 31.5 -99.5t81.5 -36.5q60 0 98.5 47t38.5 125v264h86v-500h-86v67q-20 -31 -60.5 -55.5t-93.5 -24.5z" glyph-name="udieresis" unicode="ü"/><glyph d="M279 547h-87l103 128h109zM40 -200l-1 79h41q66 0 94 71l30 80l-196 470h95l145 -364l139 364h95l-224 -569q-25 -66 -65.5 -98.5t-106.5 -32.5h-46z" glyph-name="yacute" horiz-adv-x="490" unicode="ý"/><glyph d="M63 -136v796h82v-236q18 34 63 60.5t102 26.5q92 0 159.5 -70.5t67.5 -187.5t-65.5 -187.5t-158.5 -70.5q-57 0 -101 24t-67 62v-217h-82zM298 74q66 0 107 49t41 126q0 80 -41 130.5t-107 50.5q-69 0 -111.5 -48.5t-42.5 -124.5q0 -80 42.5 -131.5t111.5 -51.5z" glyph-name="thorn" horiz-adv-x="570" unicode="þ"/><glyph d="M102 555v111h103v-111h-103zM279 555v111h104v-111h-104zM40 -200l-1 79h41q66 0 94 71l30 80l-196 470h95l145 -364l139 364h95l-224 -569q-25 -66 -65.5 -98.5t-106.5 -32.5h-46z" glyph-name="ydieresis" horiz-adv-x="490" unicode="ÿ"/><glyph d="M190 759v70h310v-70h-310zM128 0l-100 1l268 699h92l268 -700h-100l-69 184h-290zM223 267h238l-119 326z" glyph-name="Amacron" horiz-adv-x="684" unicode="Ā"/><glyph d="M110 566v70h310v-70h-310zM207 -10q-70 0 -119.5 41t-49.5 110q0 70 46 107q47 37 136 45q34 3 51.5 5.5t44 9.5t39 20.5t12.5 32.5q0 33 -28.5 53.5t-71.5 20.5q-53 0 -84 -26.5t-37 -65.5l-90 -1q8 75 64 122.5t143 47.5q90 0 141.5 -47.5t51.5 -122.5v-342h-89v67 q-60 -77 -160 -77zM220 67q54 -2 100 32t47 99l1 59q-32 -23 -129 -31q-109 -10 -109 -80q0 -36 25.5 -56.5t64.5 -22.5z" glyph-name="amacron" horiz-adv-x="519" unicode="ā"/><glyph d="M343 745q-78 0 -124 48t-48 121h70q2 -45 28 -76t74 -30q48 0 74.5 31t27.5 75h70q-1 -72 -47 -120.5t-125 -48.5zM128 0l-100 1l268 699h92l268 -700h-100l-69 184h-290zM223 267h238l-119 326z" glyph-name="Abreve" horiz-adv-x="684" unicode="Ă"/><glyph d="M262 552q-78 0 -124 48t-48 121h70q2 -45 28 -76t74 -30q48 0 74.5 31t27.5 75h70q-1 -72 -47 -120.5t-125 -48.5zM207 -10q-70 0 -119.5 41t-49.5 110q0 70 46 107q47 37 136 45q34 3 51.5 5.5t44 9.5t39 20.5t12.5 32.5q0 33 -28.5 53.5t-71.5 20.5q-53 0 -84 -26.5 t-37 -65.5l-90 -1q8 75 64 122.5t143 47.5q90 0 141.5 -47.5t51.5 -122.5v-342h-89v67q-60 -77 -160 -77zM220 67q54 -2 100 32t47 99l1 59q-32 -23 -129 -31q-109 -10 -109 -80q0 -36 25.5 -56.5t64.5 -22.5z" glyph-name="abreve" horiz-adv-x="519" unicode="ă"/><glyph d="M679 -152l37 -52q-60 -60 -147 -55q-55 2 -88.5 30t-33.5 79q0 97 116 150h-7l-69 184h-290l-69 -184l-100 1l268 699h92l267 -698l8 -2q-58 -7 -98.5 -50t-40.5 -90q0 -28 17 -44.5t46 -16.5q58 0 92 49zM223 267h238l-119 326z" glyph-name="Aogonek" horiz-adv-x="600" unicode="Ą"/><glyph d="M472 -153l37 -52q-60 -60 -146 -55q-55 2 -89 30t-34 79q0 99 127 154v64q-60 -77 -160 -77q-70 0 -119.5 41t-49.5 110q0 70 46 107q47 37 136 45q34 3 51.5 5.5t44 9.5t39 20.5t12.5 32.5q0 33 -28.5 53.5t-71.5 20.5q-53 0 -84 -26.5t-37 -65.5l-90 -1q8 75 64 122.5 t143 47.5q90 0 141.5 -47.5t51.5 -122.5v-342h-3l3 -1q-58 -7 -98 -49.5t-40 -90.5q0 -28 16.5 -44.5t45.5 -16.5q58 0 92 49zM220 67q54 -2 100 32t47 99l1 59q-32 -23 -129 -31q-109 -10 -109 -80q0 -36 25.5 -56.5t64.5 -22.5z" glyph-name="aogonek" horiz-adv-x="519" unicode="ą"/><glyph d="M400 751h-87l103 128h109zM369 -5q-138 0 -230 99.5t-91 252.5q1 158 92.5 258.5t233.5 100.5q120 0 199.5 -68t95.5 -173h-98q-13 65 -67.5 109.5t-131.5 44.5q-100 0 -163 -77.5t-63 -196.5q0 -114 62 -188t160 -74q79 0 134.5 46t68.5 110h98q-17 -106 -98 -175 t-202 -69z" glyph-name="Cacute" horiz-adv-x="712" unicode="Ć"/><glyph d="M296 547h-87l103 128h109zM270 -7q-101 0 -166.5 71.5t-65.5 185.5q0 115 66 187.5t170 72.5q83 0 142.5 -49t69.5 -126h-88q-9 43 -43.5 71.5t-82.5 28.5q-63 0 -103 -49.5t-40 -132.5t40 -132.5t103 -49.5q49 0 83.5 29t42.5 71h88q-11 -78 -71 -128t-145 -50z" glyph-name="cacute" horiz-adv-x="525" unicode="ć"/><glyph d="M300 891h119l104 -143h-93l-70 92l-69 -92h-94zM369 -5q-138 0 -230 99.5t-91 252.5q1 158 92.5 258.5t233.5 100.5q120 0 199.5 -68t95.5 -173h-98q-13 65 -67.5 109.5t-131.5 44.5q-100 0 -163 -77.5t-63 -196.5q0 -114 62 -188t160 -74q79 0 134.5 46t68.5 110h98 q-17 -106 -98 -175t-202 -69z" glyph-name="Ccircumflex" horiz-adv-x="712" unicode="Ĉ"/><glyph d="M197 687h119l104 -143h-93l-70 92l-69 -92h-94zM270 -7q-101 0 -166.5 71.5t-65.5 185.5q0 115 66 187.5t170 72.5q83 0 142.5 -49t69.5 -126h-88q-9 43 -43.5 71.5t-82.5 28.5q-63 0 -103 -49.5t-40 -132.5t40 -132.5t103 -49.5q49 0 83.5 29t42.5 71h88 q-11 -78 -71 -128t-145 -50z" glyph-name="ccircumflex" horiz-adv-x="525" unicode="ĉ"/><glyph d="M312 765v111h103v-111h-103zM369 -5q-138 0 -230 99.5t-91 252.5q1 158 92.5 258.5t233.5 100.5q120 0 199.5 -68t95.5 -173h-98q-13 65 -67.5 109.5t-131.5 44.5q-100 0 -163 -77.5t-63 -196.5q0 -114 62 -188t160 -74q79 0 134.5 46t68.5 110h98q-17 -106 -98 -175 t-202 -69z" glyph-name="Cdotaccent" horiz-adv-x="712" unicode="Ċ"/><glyph d="M209 561v111h103v-111h-103zM270 -7q-101 0 -166.5 71.5t-65.5 185.5q0 115 66 187.5t170 72.5q83 0 142.5 -49t69.5 -126h-88q-9 43 -43.5 71.5t-82.5 28.5q-63 0 -103 -49.5t-40 -132.5t40 -132.5t103 -49.5q49 0 83.5 29t42.5 71h88q-11 -78 -71 -128t-145 -50z" glyph-name="cdotaccent" horiz-adv-x="525" unicode="ċ"/><glyph d="M202 899h91l72 -92l73 92h90l-104 -143h-119zM369 -5q-138 0 -230 99.5t-91 252.5q1 158 92.5 258.5t233.5 100.5q120 0 199.5 -68t95.5 -173h-98q-13 65 -67.5 109.5t-131.5 44.5q-100 0 -163 -77.5t-63 -196.5q0 -114 62 -188t160 -74q79 0 134.5 46t68.5 110h98 q-17 -106 -98 -175t-202 -69z" glyph-name="Ccaron" horiz-adv-x="712" unicode="Č"/><glyph d="M98 695h91l72 -92l73 92h90l-104 -143h-119zM270 -7q-101 0 -166.5 71.5t-65.5 185.5q0 115 66 187.5t170 72.5q83 0 142.5 -49t69.5 -126h-88q-9 43 -43.5 71.5t-82.5 28.5q-63 0 -103 -49.5t-40 -132.5t40 -132.5t103 -49.5q49 0 83.5 29t42.5 71h88q-11 -78 -71 -128 t-145 -50z" glyph-name="ccaron" horiz-adv-x="525" unicode="č"/><glyph d="M190 895h91l72 -92l73 92h90l-104 -143h-119zM83 -2v702l253 2q143 1 234 -96t91 -251q0 -156 -88 -255t-227 -100zM168 84l164 2q107 1 174 74t67 191q0 119 -66 192t-171 71l-168 -2v-528z" glyph-name="Dcaron" horiz-adv-x="709" unicode="Ď"/><glyph d="M265 -11q-91 0 -159 70.5t-68 187.5t65.5 187.5t158.5 70.5q57 0 101 -24t67 -62v281h83v-700h-83v76q-18 -34 -63 -60.5t-102 -26.5zM72 700h91l72 -92l73 92h90l-104 -143h-119zM277 70q69 0 111.5 48.5t42.5 124.5q0 80 -42.5 131.5t-111.5 51.5q-66 0 -107 -49 t-41 -126q0 -80 41 -130.5t107 -50.5z" glyph-name="dcaron" horiz-adv-x="586" unicode="ď"/><glyph d="M377 702q143 1 234 -96t91 -251q0 -156 -88 -255t-227 -100l-263 -2v315h-68v75h68v312zM373 86q107 1 174 74t67 191q0 119 -66 192t-171 71l-168 -2v-224h174v-75h-174v-229z" glyph-name="Dcroat" horiz-adv-x="789" unicode="Đ"/><glyph d="M157 759v70h310v-70h-310zM83 0v700h447v-85h-360v-219h339v-83h-339v-228h360v-85h-447z" glyph-name="Emacron" unicode="Ē"/><glyph d="M118 563v70h310v-70h-310zM273 -11q-107 0 -171 69.5t-64 187.5q0 116 64 188t170 72q107 0 167 -79t55 -203h-366v-1q0 -72 39.5 -115t106.5 -43q42 0 79.5 23.5t51.5 70.5h81q-11 -75 -69 -122.5t-144 -47.5zM131 301h271q-5 59 -39 94t-94 35q-59 0 -96 -35.5 t-42 -93.5z" glyph-name="emacron" horiz-adv-x="533" unicode="ē"/><glyph d="M309 745q-78 0 -124 48t-48 121h70q2 -45 28 -76t74 -30q48 0 74.5 31t27.5 75h70q-1 -72 -47 -120.5t-125 -48.5zM83 0v700h447v-85h-360v-219h339v-83h-339v-228h360v-85h-447z" glyph-name="Ebreve" unicode="Ĕ"/><glyph d="M270 549q-78 0 -124 48t-48 121h70q2 -45 28 -76t74 -30q48 0 74.5 31t27.5 75h70q-1 -72 -47 -120.5t-125 -48.5zM273 -11q-107 0 -171 69.5t-64 187.5q0 116 64 188t170 72q107 0 167 -79t55 -203h-366v-1q0 -72 39.5 -115t106.5 -43q42 0 79.5 23.5t51.5 70.5h81 q-11 -75 -69 -122.5t-144 -47.5zM131 301h271q-5 59 -39 94t-94 35q-59 0 -96 -35.5t-42 -93.5z" glyph-name="ebreve" horiz-adv-x="533" unicode="ĕ"/><glyph d="M255 761v111h103v-111h-103zM83 0v700h447v-85h-360v-219h339v-83h-339v-228h360v-85h-447z" glyph-name="Edotaccent" unicode="Ė"/><glyph d="M216 565v111h103v-111h-103zM273 -11q-107 0 -171 69.5t-64 187.5q0 116 64 188t170 72q107 0 167 -79t55 -203h-366v-1q0 -72 39.5 -115t106.5 -43q42 0 79.5 23.5t51.5 70.5h81q-11 -75 -69 -122.5t-144 -47.5zM131 301h271q-5 59 -39 94t-94 35q-59 0 -96 -35.5 t-42 -93.5z" glyph-name="edotaccent" horiz-adv-x="533" unicode="ė"/><glyph d="M544 -152l37 -52q-60 -60 -146 -55q-55 2 -89 30t-34 79q0 95 118 150h-347v700h447v-85h-360v-219h339v-83h-339v-228h360v-85h-2q-58 -7 -98 -49.5t-40 -90.5q0 -28 16.5 -44.5t45.5 -16.5q58 0 92 49z" glyph-name="Eogonek" unicode="Ę"/><glyph d="M494 224h-366v-1q0 -72 39.5 -115t106.5 -43q42 0 79.5 23.5t51.5 70.5h81q-10 -70 -62 -116.5t-131 -52.5q-43 -18 -70.5 -55t-27.5 -75q0 -28 16.5 -44.5t45.5 -16.5q58 0 92 49l37 -52q-60 -60 -146 -55q-55 2 -89 30t-34 79q0 88 105 144q-85 16 -134.5 82.5 t-49.5 169.5q0 116 64 188t170 72q107 0 167 -79t55 -203zM269 430q-59 0 -96 -35.5t-42 -93.5h271q-5 59 -39 94t-94 35z" glyph-name="eogonek" horiz-adv-x="533" unicode="ę"/><glyph d="M144 895h91l72 -92l73 92h90l-104 -143h-119zM83 0v700h447v-85h-360v-219h339v-83h-339v-228h360v-85h-447z" glyph-name="Ecaron" unicode="Ě"/><glyph d="M105 699h91l72 -92l73 92h90l-104 -143h-119zM273 -11q-107 0 -171 69.5t-64 187.5q0 116 64 188t170 72q107 0 167 -79t55 -203h-366v-1q0 -72 39.5 -115t106.5 -43q42 0 79.5 23.5t51.5 70.5h81q-11 -75 -69 -122.5t-144 -47.5zM131 301h271q-5 59 -39 94t-94 35 q-59 0 -96 -35.5t-42 -93.5z" glyph-name="ecaron" horiz-adv-x="533" unicode="ě"/><glyph d="M312 887h119l104 -143h-93l-70 92l-69 -92h-94zM370 -5q-138 0 -230.5 99.5t-91.5 252.5q1 157 94 258.5t236 101.5q119 0 200.5 -68.5t96.5 -173.5h-98q-12 65 -68 110.5t-133 45.5q-101 0 -166 -78.5t-65 -197.5q0 -114 64 -189t163 -75q75 1 138.5 48.5t77.5 140.5 h-208v85l297 -1v-354h-79l-4 115q-35 -59 -95.5 -89.5t-128.5 -30.5z" glyph-name="Gcircumflex" horiz-adv-x="755" unicode="Ĝ"/><glyph d="M226 691h119l104 -143h-93l-70 92l-69 -92h-94zM274 -208q-95 0 -155 50t-64 124l86 -1q10 -54 52 -75.5t83 -21.5q72 0 116 43t44 130v54q-23 -45 -72 -72.5t-105 -27.5q-101 0 -161 72t-60 186q0 112 63 185t161 73q54 0 102 -27t72 -71v87h84v-459q0 -123 -67 -186 t-179 -63zM278 74q69 0 111.5 51.5t42.5 131.5q0 76 -42.5 124.5t-111.5 48.5q-66 0 -107 -50.5t-41 -130.5q0 -77 41 -126t107 -49z" glyph-name="gcircumflex" horiz-adv-x="588" unicode="ĝ"/><glyph d="M378 745q-78 0 -124 48t-48 121h70q2 -45 28 -76t74 -30q48 0 74.5 31t27.5 75h70q-1 -72 -47 -120.5t-125 -48.5zM370 -5q-138 0 -230.5 99.5t-91.5 252.5q1 157 94 258.5t236 101.5q119 0 200.5 -68.5t96.5 -173.5h-98q-12 65 -68 110.5t-133 45.5q-101 0 -166 -78.5 t-65 -197.5q0 -114 64 -189t163 -75q75 1 138.5 48.5t77.5 140.5h-208v85l297 -1v-354h-79l-4 115q-35 -59 -95.5 -89.5t-128.5 -30.5z" glyph-name="Gbreve" horiz-adv-x="755" unicode="Ğ"/><glyph d="M292 549q-78 0 -124 48t-48 121h70q2 -45 28 -76t74 -30q48 0 74.5 31t27.5 75h70q-1 -72 -47 -120.5t-125 -48.5zM274 -208q-95 0 -155 50t-64 124l86 -1q10 -54 52 -75.5t83 -21.5q72 0 116 43t44 130v54q-23 -45 -72 -72.5t-105 -27.5q-101 0 -161 72t-60 186 q0 112 63 185t161 73q54 0 102 -27t72 -71v87h84v-459q0 -123 -67 -186t-179 -63zM278 74q69 0 111.5 51.5t42.5 131.5q0 76 -42.5 124.5t-111.5 48.5q-66 0 -107 -50.5t-41 -130.5q0 -77 41 -126t107 -49z" glyph-name="gbreve" horiz-adv-x="588" unicode="ğ"/><glyph d="M324 761v111h103v-111h-103zM370 -5q-138 0 -230.5 99.5t-91.5 252.5q1 157 94 258.5t236 101.5q119 0 200.5 -68.5t96.5 -173.5h-98q-12 65 -68 110.5t-133 45.5q-101 0 -166 -78.5t-65 -197.5q0 -114 64 -189t163 -75q75 1 138.5 48.5t77.5 140.5h-208v85l297 -1v-354 h-79l-4 115q-35 -59 -95.5 -89.5t-128.5 -30.5z" glyph-name="Gdotaccent" horiz-adv-x="755" unicode="Ġ"/><glyph d="M238 565v111h103v-111h-103zM274 -208q-95 0 -155 50t-64 124l86 -1q10 -54 52 -75.5t83 -21.5q72 0 116 43t44 130v54q-23 -45 -72 -72.5t-105 -27.5q-101 0 -161 72t-60 186q0 112 63 185t161 73q54 0 102 -27t72 -71v87h84v-459q0 -123 -67 -186t-179 -63zM278 74 q69 0 111.5 51.5t42.5 131.5q0 76 -42.5 124.5t-111.5 48.5q-66 0 -107 -50.5t-41 -130.5q0 -77 41 -126t107 -49z" glyph-name="gdotaccent" horiz-adv-x="588" unicode="ġ"/><glyph d="M370 -5q-138 0 -230.5 99.5t-91.5 252.5q1 157 94 258.5t236 101.5q119 0 200.5 -68.5t96.5 -173.5h-98q-12 65 -68 110.5t-133 45.5q-101 0 -166 -78.5t-65 -197.5q0 -114 64 -189t163 -75q75 1 138.5 48.5t77.5 140.5h-208v85l297 -1v-354h-79l-4 115 q-35 -59 -95.5 -89.5t-128.5 -30.5zM331 -278v52q51 2 48 56h-53v111h104l-1 -111q1 -53 -26 -80.5t-72 -27.5z" glyph-name="Gcommaaccent" horiz-adv-x="755" unicode="Ģ"/><glyph d="M274 -208q-95 0 -155 50t-64 124l86 -1q10 -54 52 -75.5t83 -21.5q72 0 116 43t44 130v54q-23 -45 -72 -72.5t-105 -27.5q-101 0 -161 72t-60 186q0 112 63 185t161 73q54 0 102 -27t72 -71v87h84v-459q0 -123 -67 -186t-179 -63zM278 74q69 0 111.5 51.5t42.5 131.5 q0 76 -42.5 124.5t-111.5 48.5q-66 0 -107 -50.5t-41 -130.5q0 -77 41 -126t107 -49zM247 -478v52q51 2 48 56h-53v111h104l-1 -111q1 -53 -26 -80.5t-72 -27.5z" glyph-name="gcommaaccent" horiz-adv-x="588" unicode="ģ"/><glyph d="M287 887h119l104 -143h-93l-70 92l-69 -92h-94zM83 0v700h93v-303h353v303h93v-700h-93v318h-353v-318h-93z" glyph-name="Hcircumflex" horiz-adv-x="705" unicode="Ĥ"/><glyph d="M236 886h119l104 -143h-93l-70 92l-69 -92h-94zM73 0v700h86v-267q19 31 59.5 55.5t94.5 24.5q75 0 131 -51t56 -155v-307h-91v300q-1 64 -32 100t-81 36q-60 0 -98.5 -47t-38.5 -125v-264h-86z" glyph-name="hcircumflex" unicode="ĥ"/><glyph d="M667 593v-78h-45v-515h-93v318h-353v-318h-93v515h-44v78h44v107h93v-107h353v107h93v-107h45zM529 397v118h-353v-118h353z" glyph-name="Hbar" horiz-adv-x="758" unicode="Ħ"/><glyph d="M372 513q75 0 131 -51t56 -155v-307h-91v300q-1 64 -32 100t-81 36q-60 0 -98.5 -47t-38.5 -125v-264h-86v566h-59v67h59v67h86v-67h113v-67h-113v-133q19 31 59.5 55.5t94.5 24.5z" glyph-name="hbar" horiz-adv-x="627" unicode="ħ"/><glyph d="M202 744q-59 0 -97 56q-14 24 -37 24q-32 0 -35 -42q0 -12 5 -30h-69q-2 9 -2 26q-1 50 26.5 81.5t71.5 31.5q61 0 97 -56q14 -24 38 -24q18 0 27 15t7 41q0 2 -2 7t-2 8h68q2 -10 2 -14q6 -54 -21.5 -89t-76.5 -35zM88 0v700h91v-700h-91z" glyph-name="Itilde" horiz-adv-x="267" unicode="Ĩ"/><glyph d="M207 544q-59 0 -97 56q-14 24 -37 24q-15 0 -24.5 -11.5t-10.5 -30.5q0 -16 5 -30h-69q-3 14 -3 26q-1 50 26.5 81.5t72.5 31.5q60 0 97 -56q14 -24 37 -24q18 0 27.5 15.5t6.5 40.5l-3 15h68q2 -10 2 -14q6 -54 -21.5 -89t-76.5 -35zM94 0v500h89v-500h-89z" glyph-name="itilde" horiz-adv-x="295" unicode="ĩ"/><glyph d="M-30 759v70h310v-70h-310zM76 0v700h91v-700h-91z" glyph-name="Imacron" horiz-adv-x="240" unicode="Ī"/><glyph d="M-22 559v70h310v-70h-310zM85 0v500h89v-500h-89z" glyph-name="imacron" horiz-adv-x="276" unicode="ī"/><glyph d="M120 745q-78 0 -124 48t-48 121h70q2 -45 28 -76t74 -30q48 0 74.5 30.5t28.5 75.5h69q-1 -73 -47 -121t-125 -48zM74 0v700h91v-700h-91z" glyph-name="Ibreve" horiz-adv-x="234" unicode="Ĭ"/><glyph d="M149 545q-78 0 -124 48t-48 121h70q2 -45 28 -76t74 -30q48 0 74.5 31t27.5 75h70q-1 -72 -47 -120.5t-125 -48.5zM104 0v500h89v-500h-89z" glyph-name="ibreve" horiz-adv-x="309" unicode="ĭ"/><glyph d="M185 -153l37 -51q-58 -59 -146 -56q-55 2 -89 30.5t-34 79.5q0 96 126 153v697h91v-700h-4l3 -1q-58 -7 -98 -49.5t-40 -90.5q0 -27 16.5 -44t45.5 -17q58 0 92 49z" glyph-name="Iogonek" horiz-adv-x="244" unicode="Į"/><glyph d="M165 700v-106h-97v106h97zM176 -152l37 -52q-60 -60 -146 -55q-55 2 -89 30t-34 79q0 99 128 154v496h90v-500h-2q-58 -7 -98 -49.5t-40 -90.5q0 -28 16.5 -44.5t45.5 -16.5q58 0 92 49z" glyph-name="iogonek" horiz-adv-x="233" unicode="į"/><glyph d="M80 761v111h103v-111h-103zM88 0v700h91v-700h-91z" glyph-name="Idotaccent" horiz-adv-x="267" unicode="İ"/><glyph d="M68 0v500h89v-500h-89z" glyph-name="dotlessi" horiz-adv-x="225" unicode="ı"/><glyph d="M332 876h119l104 -143h-93l-70 92l-69 -92h-94zM230 -8q-94 0 -152.5 57.5t-59.5 153.5v54h85v-52q1 -59 36 -94.5t91 -35.5t89.5 38t33.5 104v483h90v-485q0 -103 -60 -163t-153 -60z" glyph-name="Jcircumflex" horiz-adv-x="516" unicode="Ĵ"/><glyph d="M100 680h119l105 -143h-94l-70 92l-69 -92h-94zM31 -177v82h21q31 0 49.5 19t18.5 57v519h86v-531q0 -68 -39.5 -107t-103.5 -39h-32z" glyph-name="jcircumflex" horiz-adv-x="309" unicode="ĵ"/><glyph d="M83 0v700h85v-352l324 352h110l-289 -314l298 -386h-113l-246 322l-84 -92v-230h-85zM265 -278v52q51 2 48 56h-53v111h104l-1 -111q1 -53 -26 -80.5t-72 -27.5z" glyph-name="Kcommaaccent" horiz-adv-x="624" unicode="Ķ"/><glyph d="M73 0v700h85v-419l207 219h106l-186 -197l206 -302l-98 -1l-164 240l-71 -74v-166h-85zM208 -278v52q51 2 48 56h-53v111h104l-1 -111q1 -53 -26 -80.5t-72 -27.5z" glyph-name="kcommaaccent" horiz-adv-x="509" unicode="ķ"/><glyph d="M165 747h-87l103 128h109zM83 0v700h92v-613h315v-87h-407z" glyph-name="Lacute" horiz-adv-x="513" unicode="Ĺ"/><glyph d="M151 807h-87l103 128h109zM73 0v700h89v-700h-89z" glyph-name="lacute" horiz-adv-x="235" unicode="ĺ"/><glyph d="M83 0v700h92v-613h315v-87h-407zM210 -278v52q51 2 48 56h-53v111h104l-1 -111q1 -53 -26 -80.5t-72 -27.5z" glyph-name="Lcommaaccent" horiz-adv-x="513" unicode="Ļ"/><glyph d="M73 0v700h89v-700h-89zM71 -278v52q51 2 48 56h-53v111h104l-1 -111q1 -53 -26 -80.5t-72 -27.5z" glyph-name="lcommaaccent" horiz-adv-x="235" unicode="ļ"/><glyph d="M-33 895h91l72 -92l73 92h90l-104 -143h-119zM83 0v700h92v-613h315v-87h-407z" glyph-name="Lcaron" horiz-adv-x="513" unicode="Ľ"/><glyph d="M-47 955h91l72 -92l73 92h90l-104 -143h-119zM73 0v700h89v-700h-89z" glyph-name="lcaron" horiz-adv-x="235" unicode="ľ"/><glyph d="M75 751v111h104v-111h-104zM83 0v700h92v-613h315v-87h-407z" glyph-name="Ldot" horiz-adv-x="513" unicode="Ŀ"/><glyph d="M66 736v111h104v-111h-104zM73 0v700h89v-700h-89z" glyph-name="ldot" horiz-adv-x="243" unicode="ŀ"/><glyph d="M175 87h315v-87h-407v289l-82 -41v78l82 41v333h92v-286l149 75v-78l-149 -75v-249z" glyph-name="Lslash" horiz-adv-x="525" unicode="Ł"/><glyph d="M246 499v-77l-84 -34v-388h-89v351l-60 -24v77l60 24v272h89v-235z" glyph-name="lslash" horiz-adv-x="273" unicode="ł"/><glyph d="M392 747h-87l103 128h109zM519 0l-351 567v-567h-85v700h107l357 -578v578h85v-701z" glyph-name="Nacute" horiz-adv-x="715" unicode="Ń"/><glyph d="M324 554h-87l103 128h109zM73 0v500h86v-67q19 31 59.5 55.5t94.5 24.5q75 0 131 -51t56 -155v-307h-91v300q0 65 -31 100.5t-82 35.5q-58 0 -97.5 -47.5t-39.5 -124.5v-264h-86z" glyph-name="nacute" unicode="ń"/><glyph d="M519 0l-351 567v-567h-85v700h107l357 -578v578h85v-701zM311 -278v52q51 2 48 56h-53v111h104l-1 -111q1 -53 -26 -80.5t-72 -27.5z" glyph-name="Ncommaaccent" horiz-adv-x="715" unicode="Ņ"/><glyph d="M73 0v500h86v-67q19 31 59.5 55.5t94.5 24.5q75 0 131 -51t56 -155v-307h-91v300q0 65 -31 100.5t-82 35.5q-58 0 -97.5 -47.5t-39.5 -124.5v-264h-86zM237 -278v52q51 2 48 56h-53v111h104l-1 -111q1 -53 -26 -80.5t-72 -27.5z" glyph-name="ncommaaccent" unicode="ņ"/><glyph d="M193 895h91l72 -92l73 92h90l-104 -143h-119zM519 0l-351 567v-567h-85v700h107l357 -578v578h85v-701z" glyph-name="Ncaron" horiz-adv-x="715" unicode="Ň"/><glyph d="M126 702h91l72 -92l73 92h90l-104 -143h-119zM73 0v500h86v-67q19 31 59.5 55.5t94.5 24.5q75 0 131 -51t56 -155v-307h-91v300q0 65 -31 100.5t-82 35.5q-58 0 -97.5 -47.5t-39.5 -124.5v-264h-86z" glyph-name="ncaron" unicode="ň"/><glyph d="M547 700h85v-701q-3 -197 -190 -197v80q33 0 62 18t28 53q0 20 -13 47l-351 567v-567h-85v700h107l357 -578v578z" glyph-name="Eng" horiz-adv-x="715" unicode="Ŋ"/><glyph d="M313 513q75 0 131 -51t56 -155v-307q-1 -77 -40 -122t-114 -45v87q34 0 49 18.5t14 61.5v300q0 65 -31 100.5t-82 35.5q-58 0 -97.5 -47.5t-39.5 -124.5v-264h-86v500h86v-67q19 31 59.5 55.5t94.5 24.5z" glyph-name="eng" unicode="ŋ"/><glyph d="M224 759v70h310v-70h-310zM376 -10q-139 0 -233.5 103.5t-94.5 256.5q0 155 93.5 256.5t234.5 101.5t234.5 -102t93.5 -258q0 -153 -94.5 -255.5t-233.5 -102.5zM375 77q104 0 171 76.5t67 191.5q0 120 -66.5 199t-170.5 79t-169.5 -78.5t-65.5 -197.5q0 -116 66 -193 t168 -77z" glyph-name="Omacron" horiz-adv-x="752" unicode="Ō"/><glyph d="M124 559v70h310v-70h-310zM276 -5q-103 0 -170.5 72t-67.5 183q0 113 67.5 185t170.5 72q104 0 170.5 -72t66.5 -185q0 -111 -67.5 -183t-169.5 -72zM275 75q69 0 111 49t42 125q0 79 -40 128t-112 49q-69 0 -110 -49t-41 -127q0 -77 41 -126t109 -49z" glyph-name="omacron" horiz-adv-x="551" unicode="ō"/><glyph d="M376 745q-78 0 -124 48t-48 121h70q2 -45 28 -76t74 -30q48 0 74.5 31t27.5 75h70q-1 -72 -47 -120.5t-125 -48.5zM376 -10q-139 0 -233.5 103.5t-94.5 256.5q0 155 93.5 256.5t234.5 101.5t234.5 -102t93.5 -258q0 -153 -94.5 -255.5t-233.5 -102.5zM375 77 q104 0 171 76.5t67 191.5q0 120 -66.5 199t-170.5 79t-169.5 -78.5t-65.5 -197.5q0 -116 66 -193t168 -77z" glyph-name="Obreve" horiz-adv-x="752" unicode="Ŏ"/><glyph d="M276 545q-78 0 -124 48t-48 121h70q2 -45 28 -76t74 -30q48 0 74.5 31t27.5 75h70q-1 -72 -47 -120.5t-125 -48.5zM276 -5q-103 0 -170.5 72t-67.5 183q0 113 67.5 185t170.5 72q104 0 170.5 -72t66.5 -185q0 -111 -67.5 -183t-169.5 -72zM275 75q69 0 111 49t42 125 q0 79 -40 128t-112 49q-69 0 -110 -49t-41 -127q0 -77 41 -126t109 -49z" glyph-name="obreve" horiz-adv-x="551" unicode="ŏ"/><glyph d="M232 760v111h103v-111h-103zM409 760v111h104v-111h-104zM376 -10q-139 0 -233.5 103.5t-94.5 256.5q0 155 93.5 256.5t234.5 101.5t234.5 -102t93.5 -258q0 -153 -94.5 -255.5t-233.5 -102.5zM375 77q104 0 171 76.5t67 191.5q0 120 -66.5 199t-170.5 79t-169.5 -78.5 t-65.5 -197.5q0 -116 66 -193t168 -77z" glyph-name="Ohungarumlaut" horiz-adv-x="752" unicode="Ő"/><glyph d="M132 560v111h103v-111h-103zM309 560v111h104v-111h-104zM276 -5q-103 0 -170.5 72t-67.5 183q0 113 67.5 185t170.5 72q104 0 170.5 -72t66.5 -185q0 -111 -67.5 -183t-169.5 -72zM275 75q69 0 111 49t42 125q0 79 -40 128t-112 49q-69 0 -110 -49t-41 -127 q0 -77 41 -126t109 -49z" glyph-name="ohungarumlaut" horiz-adv-x="551" unicode="ő"/><glyph d="M1072 615h-360v-219h339v-83h-339v-228h360v-85h-447v110q-97 -120 -249 -120q-139 0 -233.5 103.5t-94.5 256.5q0 155 93.5 256.5t234.5 101.5q154 0 249 -119v111h447v-85zM375 77q104 0 171 76.5t67 191.5q0 120 -66.5 199t-170.5 79t-169.5 -78.5t-65.5 -197.5 q0 -116 66 -193t168 -77z" glyph-name="OE" horiz-adv-x="1110" unicode="Œ"/><glyph d="M906 224h-367v-1q0 -72 40 -115t107 -43q42 0 79.5 23.5t50.5 70.5h82q-11 -75 -69 -122.5t-144 -47.5q-71 0 -124.5 32t-82.5 91q-31 -55 -84 -86t-118 -31q-103 0 -170.5 72t-67.5 183q0 113 67.5 185t170.5 72q67 0 121 -32t84 -88q28 57 80 88t122 31 q110 0 169 -78.5t54 -203.5zM681 430q-59 0 -96.5 -35.5t-42.5 -93.5h272q-5 59 -39.5 94t-93.5 35zM275 75q69 0 111 49t42 125q0 79 -40 128t-112 49q-69 0 -110 -49t-41 -127q0 -77 41 -126t109 -49z" glyph-name="oe" horiz-adv-x="944" unicode="œ"/><glyph d="M359 747h-87l103 128h109zM83 -1v701l288 1q94 0 149.5 -52.5t55.5 -137.5q0 -59 -31.5 -105t-76.5 -61q49 -15 68.5 -54.5t25.5 -112.5q1 -20 3.5 -53.5t3.5 -43.5t3.5 -28t7 -29t11.5 -24h-100q-4 11 -7 21t-5 25.5t-2.5 26t-2.5 37.5t-3 43q-2 35 -4.5 53t-10.5 41.5 t-22 34.5t-39 19.5t-62 8.5h-162v-311h-88zM171 388h183q60 0 98 31t38 86q0 59 -36 89t-100 30h-183v-236z" glyph-name="Racute" horiz-adv-x="650" unicode="Ŕ"/><glyph d="M201 547h-87l103 128h109zM73 0v500h84v-65q8 16 21 30.5t48 29t82 13.5h14v-87l-10 -1q-155 4 -155 -149v-271h-84z" glyph-name="racute" horiz-adv-x="334" unicode="ŕ"/><glyph d="M83 -1v701l288 1q94 0 149.5 -52.5t55.5 -137.5q0 -59 -31.5 -105t-76.5 -61q49 -15 68.5 -54.5t25.5 -112.5q1 -20 3.5 -53.5t3.5 -43.5t3.5 -28t7 -29t11.5 -24h-100q-4 11 -7 21t-5 25.5t-2.5 26t-2.5 37.5t-3 43q-2 35 -4.5 53t-10.5 41.5t-22 34.5t-39 19.5t-62 8.5 h-162v-311h-88zM171 388h183q60 0 98 31t38 86q0 59 -36 89t-100 30h-183v-236zM278 -278v52q51 2 48 56h-53v111h104l-1 -111q1 -53 -26 -80.5t-72 -27.5z" glyph-name="Rcommaaccent" horiz-adv-x="650" unicode="Ŗ"/><glyph d="M73 0v500h84v-65q8 16 21 30.5t48 29t82 13.5h14v-87l-10 -1q-155 4 -155 -149v-271h-84zM68 -278v52q51 2 48 56h-53v111h104l-1 -111q1 -53 -26 -80.5t-72 -27.5z" glyph-name="rcommaaccent" horiz-adv-x="334" unicode="ŗ"/><glyph d="M161 895h91l72 -92l73 92h90l-104 -143h-119zM83 -1v701l288 1q94 0 149.5 -52.5t55.5 -137.5q0 -59 -31.5 -105t-76.5 -61q49 -15 68.5 -54.5t25.5 -112.5q1 -20 3.5 -53.5t3.5 -43.5t3.5 -28t7 -29t11.5 -24h-100q-4 11 -7 21t-5 25.5t-2.5 26t-2.5 37.5t-3 43 q-2 35 -4.5 53t-10.5 41.5t-22 34.5t-39 19.5t-62 8.5h-162v-311h-88zM171 388h183q60 0 98 31t38 86q0 59 -36 89t-100 30h-183v-236z" glyph-name="Rcaron" horiz-adv-x="650" unicode="Ř"/><glyph d="M2 695h91l72 -92l73 92h90l-104 -143h-119zM73 0v500h84v-65q8 16 21 30.5t48 29t82 13.5h14v-87l-10 -1q-155 4 -155 -149v-271h-84z" glyph-name="rcaron" horiz-adv-x="334" unicode="ř"/><glyph d="M346 747h-87l103 128h109zM326 -7q-112 0 -193.5 58t-89.5 165h100q11 -66 59.5 -102.5t127.5 -36.5q71 0 111.5 34.5t40.5 86.5q0 48 -34.5 75t-116.5 39q-269 35 -269 198q0 82 69 139t171 57q120 0 190.5 -59.5t73.5 -162.5h-94q-4 65 -50 100.5t-119 35.5 q-63 0 -102.5 -32t-39.5 -75q0 -90 164 -114q140 -19 198 -69t58 -134q0 -92 -70.5 -147.5t-184.5 -55.5z" glyph-name="Sacute" horiz-adv-x="624" unicode="Ś"/><glyph d="M268 547h-87l103 128h109zM244 -11q-87 0 -147 44.5t-64 126.5h84q7 -47 41.5 -72t85.5 -25q50 0 76 23.5t26 58.5q0 30 -24 48.5t-82 27.5q-108 16 -150 54t-42 93q0 58 50.5 99.5t128.5 41.5q81 0 137 -42.5t60 -127.5h-81q-10 95 -114 95q-39 0 -67 -18.5t-28 -48.5 q0 -57 106 -72t150.5 -51t44.5 -99q0 -69 -55 -112.5t-136 -43.5z" glyph-name="sacute" horiz-adv-x="468" unicode="ś"/><glyph d="M246 887h119l104 -143h-93l-70 92l-69 -92h-94zM326 -7q-112 0 -193.5 58t-89.5 165h100q11 -66 59.5 -102.5t127.5 -36.5q71 0 111.5 34.5t40.5 86.5q0 48 -34.5 75t-116.5 39q-269 35 -269 198q0 82 69 139t171 57q120 0 190.5 -59.5t73.5 -162.5h-94q-4 65 -50 100.5 t-119 35.5q-63 0 -102.5 -32t-39.5 -75q0 -90 164 -114q140 -19 198 -69t58 -134q0 -92 -70.5 -147.5t-184.5 -55.5z" glyph-name="Scircumflex" horiz-adv-x="624" unicode="Ŝ"/><glyph d="M168 687h119l104 -143h-93l-70 92l-69 -92h-94zM244 -11q-87 0 -147 44.5t-64 126.5h84q7 -47 41.5 -72t85.5 -25q50 0 76 23.5t26 58.5q0 30 -24 48.5t-82 27.5q-108 16 -150 54t-42 93q0 58 50.5 99.5t128.5 41.5q81 0 137 -42.5t60 -127.5h-81q-10 95 -114 95 q-39 0 -67 -18.5t-28 -48.5q0 -57 106 -72t150.5 -51t44.5 -99q0 -69 -55 -112.5t-136 -43.5z" glyph-name="scircumflex" horiz-adv-x="468" unicode="ŝ"/><glyph d="M581 196q0 -91 -70 -146.5t-182 -56.5l-16 -30q22 3 36 2q38 -4 62 -29.5t24 -63.5q0 -44 -30.5 -74.5t-74.5 -30.5q-35 0 -68.5 19.5t-47.5 48.5l51 19q10 -14 28.5 -24t36.5 -10q22 0 36 15t14 37q0 41 -41 46q-23 5 -51 -8l-43 27l31 59q-95 13 -160.5 69.5 t-72.5 150.5h100q11 -66 59.5 -102.5t127.5 -36.5q71 0 111.5 34.5t40.5 86.5q0 48 -34.5 75t-116.5 39q-269 35 -269 198q0 82 69 139t171 57q120 0 190.5 -59.5t73.5 -162.5h-94q-4 65 -50 100.5t-119 35.5q-63 0 -102.5 -32t-39.5 -75q0 -90 164 -114q140 -19 198 -69 t58 -134z" glyph-name="Scedilla" horiz-adv-x="624" unicode="Ş"/><glyph d="M435 145q0 -68 -53.5 -111t-132.5 -45l-14 -27q17 4 35 2q39 -3 63 -28.5t24 -64.5q0 -44 -30.5 -74.5t-74.5 -30.5q-35 0 -69 20t-47 48l51 20q9 -14 28 -24.5t37 -10.5q21 0 35.5 15.5t14.5 36.5q0 42 -41 47q-21 5 -51 -8l-43 26l29 57q-69 11 -114 54t-49 113h84 q7 -47 41.5 -72t85.5 -25q50 0 76 23.5t26 58.5q0 30 -24 48.5t-82 27.5q-108 16 -150 54t-42 93q0 58 50.5 99.5t128.5 41.5q81 0 137 -42.5t60 -127.5h-81q-10 95 -114 95q-39 0 -67 -18.5t-28 -48.5q0 -57 106 -72t150.5 -51t44.5 -99z" glyph-name="scedilla" horiz-adv-x="468" unicode="ş"/><glyph d="M147 895h91l72 -92l73 92h90l-104 -143h-119zM326 -7q-112 0 -193.5 58t-89.5 165h100q11 -66 59.5 -102.5t127.5 -36.5q71 0 111.5 34.5t40.5 86.5q0 48 -34.5 75t-116.5 39q-269 35 -269 198q0 82 69 139t171 57q120 0 190.5 -59.5t73.5 -162.5h-94q-4 65 -50 100.5 t-119 35.5q-63 0 -102.5 -32t-39.5 -75q0 -90 164 -114q140 -19 198 -69t58 -134q0 -92 -70.5 -147.5t-184.5 -55.5z" glyph-name="Scaron" horiz-adv-x="624" unicode="Š"/><glyph d="M69 695h91l72 -92l73 92h90l-104 -143h-119zM244 -11q-87 0 -147 44.5t-64 126.5h84q7 -47 41.5 -72t85.5 -25q50 0 76 23.5t26 58.5q0 30 -24 48.5t-82 27.5q-108 16 -150 54t-42 93q0 58 50.5 99.5t128.5 41.5q81 0 137 -42.5t60 -127.5h-81q-10 95 -114 95 q-39 0 -67 -18.5t-28 -48.5q0 -57 106 -72t150.5 -51t44.5 -99q0 -69 -55 -112.5t-136 -43.5z" glyph-name="scaron" horiz-adv-x="468" unicode="š"/><glyph d="M353 14q38 -4 62 -29.5t24 -63.5q0 -44 -30.5 -74.5t-74.5 -30.5q-35 0 -68.5 19.5t-47.5 48.5l51 19q10 -14 28.5 -24t36.5 -10q22 0 36 15t14 37q0 41 -41 46q-23 5 -51 -8l-43 27l7 14l1 617h-248l-1 83h582l1 -83l-247 1l-1 -604h10z" glyph-name="Tcommaaccent" horiz-adv-x="599" unicode="Ţ"/><glyph d="M204 0q-16 0 -31 3l-16 -31q15 4 35 2q38 -4 62.5 -29t24.5 -63q0 -44 -31 -75t-75 -31q-35 0 -68.5 20t-46.5 48l50 20q10 -14 29 -24t36 -10q22 0 36.5 15t14.5 37q0 19 -11.5 31.5t-29.5 14.5q-21 5 -51 -8l-44 27l39 75q-52 36 -52 108v296h-77v74h77v151h84v-151 h123v-74h-123v-280q0 -36 14.5 -52t47.5 -16h63l-1 -78h-79z" glyph-name="tcommaaccent" horiz-adv-x="308" unicode="ţ"/><glyph d="M135 895h91l72 -92l73 92h90l-104 -143h-119zM256 0l1 617h-248l-1 83h582l1 -83l-247 1l-1 -618h-87z" glyph-name="Tcaron" horiz-adv-x="599" unicode="Ť"/><glyph d="M-46 846h91l72 -92l73 92h90l-104 -143h-119zM204 0q-58 0 -93.5 35.5t-35.5 94.5v296h-77v74h77v151h84v-151h123v-74h-123v-280q0 -36 14.5 -52t47.5 -16h63l-1 -78h-79z" glyph-name="tcaron" horiz-adv-x="302" unicode="ť"/><glyph d="M148 759v70h310v-70h-310zM256 0l1 617h-248l-1 83h582l1 -83l-247 1l-1 -618h-87z" glyph-name="Tbar" horiz-adv-x="599" unicode="Ŧ"/><glyph d="M295 294h-124v-148q0 -37 14.5 -52.5t46.5 -15.5h63v-78h-79q-58 0 -94 35.5t-36 94.5v164h-74v70h74v62h-77v74h77v151h85v-151h123v-74h-123v-62h124v-70z" glyph-name="tbar" horiz-adv-x="313" unicode="ŧ"/><glyph d="M419 744q-59 0 -97 56q-14 24 -37 24q-32 0 -35 -42q0 -12 5 -30h-69q-2 9 -2 26q-1 50 26.5 81.5t71.5 31.5q61 0 97 -56q14 -24 38 -24q18 0 27 15t7 41q-1 2 -2 7t-2 8h68q2 -10 2 -14q6 -54 -21.5 -89t-76.5 -35zM347 -8q-124 0 -199 74t-75 199v435h88v-435 q0 -89 50.5 -139.5t135.5 -50.5t135.5 50.5t50.5 139.5v435h89v-435q0 -125 -75 -199t-200 -74z" glyph-name="Utilde" horiz-adv-x="695" unicode="Ũ"/><glyph d="M352 544q-59 0 -97 56q-14 24 -37 24q-32 0 -35 -42q0 -12 5 -30h-69q-2 9 -2 26q-1 50 26.5 81.5t71.5 31.5q61 0 97 -56q14 -24 38 -24q18 0 27 15t7 41q0 2 -1.5 7t-2.5 8h68q2 -10 2 -14q6 -54 -21.5 -89t-76.5 -35zM255 -13q-75 0 -131 51t-56 155v307h91v-300 q0 -63 31.5 -99.5t81.5 -36.5q60 0 98.5 47t38.5 125v264h86v-500h-86v67q-20 -31 -60.5 -55.5t-93.5 -24.5z" glyph-name="utilde" unicode="ũ"/><glyph d="M199 759v70h310v-70h-310zM347 -8q-124 0 -199 74t-75 199v435h88v-435q0 -89 50.5 -139.5t135.5 -50.5t135.5 50.5t50.5 139.5v435h89v-435q0 -125 -75 -199t-200 -74z" glyph-name="Umacron" horiz-adv-x="695" unicode="Ū"/><glyph d="M132 559v70h310v-70h-310zM255 -13q-75 0 -131 51t-56 155v307h91v-300q0 -63 31.5 -99.5t81.5 -36.5q60 0 98.5 47t38.5 125v264h86v-500h-86v67q-20 -31 -60.5 -55.5t-93.5 -24.5z" glyph-name="umacron" unicode="ū"/><glyph d="M351 745q-78 0 -124 48t-48 121h70q2 -45 28 -76t74 -30q48 0 74.5 31t27.5 75h70q-1 -72 -47 -120.5t-125 -48.5zM347 -8q-124 0 -199 74t-75 199v435h88v-435q0 -89 50.5 -139.5t135.5 -50.5t135.5 50.5t50.5 139.5v435h89v-435q0 -125 -75 -199t-200 -74z" glyph-name="Ubreve" horiz-adv-x="695" unicode="Ŭ"/><glyph d="M284 545q-78 0 -124 48t-48 121h70q2 -45 28 -76t74 -30q48 0 74.5 31t27.5 75h70q-1 -72 -47 -120.5t-125 -48.5zM255 -13q-75 0 -131 51t-56 155v307h91v-300q0 -63 31.5 -99.5t81.5 -36.5q60 0 98.5 47t38.5 125v264h86v-500h-86v67q-20 -31 -60.5 -55.5t-93.5 -24.5z " glyph-name="ubreve" unicode="ŭ"/><glyph d="M351 742q-39 0 -67 28t-28 66q0 39 27.5 66.5t67.5 27.5q38 0 65 -27.5t27 -66.5q1 -38 -26.5 -66t-65.5 -28zM351 792q19 0 31.5 12t12.5 32t-12.5 33t-31.5 13q-20 0 -32.5 -13t-12.5 -33t12.5 -32t32.5 -12zM347 -8q-124 0 -199 74t-75 199v435h88v-435 q0 -89 50.5 -139.5t135.5 -50.5t135.5 50.5t50.5 139.5v435h89v-435q0 -125 -75 -199t-200 -74z" glyph-name="Uring" horiz-adv-x="695" unicode="Ů"/><glyph d="M284 542q-40 0 -67.5 28t-27.5 66q0 39 27.5 66.5t67.5 27.5q38 0 65 -27.5t27 -66.5q1 -38 -26.5 -66t-65.5 -28zM284 592q20 0 32 12t12 32t-12.5 33t-31.5 13q-20 0 -32.5 -13t-12.5 -33t12.5 -32t32.5 -12zM255 -13q-75 0 -131 51t-56 155v307h91v-300 q0 -63 31.5 -99.5t81.5 -36.5q60 0 98.5 47t38.5 125v264h86v-500h-86v67q-20 -31 -60.5 -55.5t-93.5 -24.5z" glyph-name="uring" unicode="ů"/><glyph d="M207 760v111h103v-111h-103zM384 760v111h104v-111h-104zM347 -8q-124 0 -199 74t-75 199v435h88v-435q0 -89 50.5 -139.5t135.5 -50.5t135.5 50.5t50.5 139.5v435h89v-435q0 -125 -75 -199t-200 -74z" glyph-name="Uhungarumlaut" horiz-adv-x="695" unicode="Ű"/><glyph d="M140 560v111h103v-111h-103zM317 560v111h104v-111h-104zM255 -13q-75 0 -131 51t-56 155v307h91v-300q0 -63 31.5 -99.5t81.5 -36.5q60 0 98.5 47t38.5 125v264h86v-500h-86v67q-20 -31 -60.5 -55.5t-93.5 -24.5z" glyph-name="uhungarumlaut" unicode="ű"/><glyph d="M533 700h89v-435q0 -116 -64.5 -188t-174.5 -83q-43 -18 -70.5 -55t-27.5 -75q0 -28 16.5 -44.5t45.5 -16.5q58 0 92 49l37 -52q-60 -60 -146 -55q-55 2 -89 30t-34 79q0 86 99 140q-107 12 -170 84t-63 187v435h88v-435q0 -89 50.5 -139.5t135.5 -50.5t135.5 50.5 t50.5 139.5v435z" glyph-name="Uogonek" horiz-adv-x="695" unicode="Ų"/><glyph d="M509 -152l37 -52q-60 -60 -146 -55q-55 2 -89 30t-34 79q0 101 132 156v61q-20 -31 -60.5 -55.5t-93.5 -24.5q-75 0 -131 51t-56 155v307h91v-300q0 -63 31.5 -99.5t81.5 -36.5q60 0 98.5 47t38.5 125v264h86v-500h-2q-58 -7 -98 -49.5t-40 -90.5q0 -28 16.5 -44.5 t45.5 -16.5q58 0 92 49z" glyph-name="uogonek" unicode="ų"/><glyph d="M404 887h119l104 -143h-93l-70 92l-69 -92h-94zM226 0l-203 700h89l161 -576l155 576h85l161 -576l153 576h89l-197 -700h-91l-157 561l-153 -561h-92z" glyph-name="Wcircumflex" horiz-adv-x="939" unicode="Ŵ"/><glyph d="M303 687h119l104 -143h-93l-70 92l-69 -92h-94zM173 0l-160 500h95l112 -390l110 390h77l112 -390l110 390h96l-160 -500h-93l-102 356l-103 -356h-94z" glyph-name="wcircumflex" horiz-adv-x="738" unicode="ŵ"/><glyph d="M252 887h119l104 -143h-93l-70 92l-69 -92h-94zM274 0v286l-256 414h97l203 -334l209 334h91l-256 -414v-286h-88z" glyph-name="Ycircumflex" horiz-adv-x="636" unicode="Ŷ"/><glyph d="M179 687h119l104 -143h-93l-70 92l-69 -92h-94zM40 -200l-1 79h41q66 0 94 71l30 80l-196 470h95l145 -364l139 364h95l-224 -569q-25 -66 -65.5 -98.5t-106.5 -32.5h-46z" glyph-name="ycircumflex" horiz-adv-x="490" unicode="ŷ"/><glyph d="M175 755v111h103v-111h-103zM352 755v111h104v-111h-104zM274 0v286l-256 414h97l203 -334l209 334h91l-256 -414v-286h-88z" glyph-name="Ydieresis" horiz-adv-x="636" unicode="Ÿ"/><glyph d="M358 747h-87l103 128h109zM48 0v87l452 526h-446v87h555v-87l-448 -526h442v-87h-555z" glyph-name="Zacute" horiz-adv-x="647" unicode="Ź"/><glyph d="M281 547h-87l103 128h109zM38 0v79l297 342h-297v80l401 -1v-79l-295 -342h295v-79h-401z" glyph-name="zacute" horiz-adv-x="487" unicode="ź"/><glyph d="M270 761v111h103v-111h-103zM48 0v87l452 526h-446v87h555v-87l-448 -526h442v-87h-555z" glyph-name="Zdotaccent" horiz-adv-x="647" unicode="Ż"/><glyph d="M193 561v111h103v-111h-103zM38 0v79l297 342h-297v80l401 -1v-79l-295 -342h295v-79h-401z" glyph-name="zdotaccent" horiz-adv-x="487" unicode="ż"/><glyph d="M159 895h91l72 -92l73 92h90l-104 -143h-119zM48 0v87l452 526h-446v87h555v-87l-448 -526h442v-87h-555z" glyph-name="Zcaron" horiz-adv-x="647" unicode="Ž"/><glyph d="M82 695h91l72 -92l73 92h90l-104 -143h-119zM38 0v79l297 342h-297v80l401 -1v-79l-295 -342h295v-79h-401z" glyph-name="zcaron" horiz-adv-x="487" unicode="ž"/><glyph d="M260 711q106 0 170.5 -69.5t64.5 -187.5q0 -116 -64 -188t-170 -72q-108 0 -167.5 79t-54.5 203h366v1q0 72 -40 115t-107 43q-41 0 -78.5 -23.5t-51.5 -70.5h-81q11 75 69 122.5t144 47.5zM402 399h-272q5 -59 39.5 -94t94.5 -35q59 0 96 35.5t42 93.5z" glyph-name="uni018F" horiz-adv-x="533" unicode="Ə"/><glyph d="M326 -7q-112 0 -193.5 58t-89.5 165h100q11 -66 59.5 -102.5t127.5 -36.5q71 0 111.5 34.5t40.5 86.5q0 48 -34.5 75t-116.5 39q-269 35 -269 198q0 82 69 139t171 57q120 0 190.5 -59.5t73.5 -162.5h-94q-4 65 -50 100.5t-119 35.5q-63 0 -102.5 -32t-39.5 -75 q0 -90 164 -114q140 -19 198 -69t58 -134q0 -92 -70.5 -147.5t-184.5 -55.5zM265 -278v52q51 2 48 56h-53v111h104l-1 -111q1 -53 -26 -80.5t-72 -27.5z" glyph-name="Scommaaccent" horiz-adv-x="624" unicode="Ș"/><glyph d="M244 -11q-87 0 -147 44.5t-64 126.5h84q7 -47 41.5 -72t85.5 -25q50 0 76 23.5t26 58.5q0 30 -24 48.5t-82 27.5q-108 16 -150 54t-42 93q0 58 50.5 99.5t128.5 41.5q81 0 137 -42.5t60 -127.5h-81q-10 95 -114 95q-39 0 -67 -18.5t-28 -48.5q0 -57 106 -72t150.5 -51 t44.5 -99q0 -69 -55 -112.5t-136 -43.5zM187 -278v52q51 2 48 56h-53v111h104l-1 -111q1 -53 -26 -80.5t-72 -27.5z" glyph-name="scommaaccent" horiz-adv-x="468" unicode="ș"/><glyph d="M256 0l1 617h-248l-1 83h582l1 -83l-247 1l-1 -618h-87zM252 -278v52q51 2 48 56h-53v111h104l-1 -111q1 -53 -26 -80.5t-72 -27.5z" glyph-name="uni021A" horiz-adv-x="599" unicode="Ț"/><glyph d="M204 0q-58 0 -93.5 35.5t-35.5 94.5v296h-77v74h77v151h84v-151h123v-74h-123v-280q0 -36 14.5 -52t47.5 -16h63l-1 -78h-79zM132 -278v52q51 2 48 56h-53v111h104l-1 -111q1 -53 -26 -80.5t-72 -27.5z" glyph-name="uni021B" horiz-adv-x="302" unicode="ț"/><glyph d="M166 759v70h310v-70h-310zM274 0v286l-256 414h97l203 -334l209 334h91l-256 -414v-286h-88z" glyph-name="uni0232" horiz-adv-x="636" unicode="Ȳ"/><glyph d="M93 559v70h310v-70h-310zM40 -200l-1 79h41q66 0 94 71l30 80l-196 470h95l145 -364l139 364h95l-224 -569q-25 -66 -65.5 -98.5t-106.5 -32.5h-46z" glyph-name="uni0233" horiz-adv-x="490" unicode="ȳ"/><glyph d="M-12 -177v82h21q31 0 50 19t19 57v519h85v-531q0 -68 -39 -107t-103 -39h-33z" glyph-name="uni0237" horiz-adv-x="226" unicode="ȷ"/><glyph d="M125 722h119l104 -143h-93l-70 92l-69 -92h-94z" glyph-name="circumflex" horiz-adv-x="53" unicode="ˆ"/><glyph d="M22 722h91l72 -92l73 92h90l-104 -143h-119z" glyph-name="caron" horiz-adv-x="53" unicode="ˇ"/><glyph d="M288 562q-78 0 -124 48t-48 121h70q2 -45 28 -76t74 -30q48 0 74.5 31t27.5 75h70q-1 -72 -47 -120.5t-125 -48.5z" glyph-name="breve" horiz-adv-x="53" unicode="˘"/><glyph d="M100 589v111h103v-111h-103z" glyph-name="dotaccent" horiz-adv-x="53" unicode="˙"/><glyph d="M86 560q-40 0 -67.5 28t-27.5 66q0 39 27.5 66.5t67.5 27.5q38 0 65 -27.5t27 -66.5q1 -38 -26.5 -66t-65.5 -28zM86 610q20 0 32 12t12 32t-12.5 33t-31.5 13q-20 0 -32.5 -13t-12.5 -33t12.5 -32t32.5 -12z" glyph-name="ring" horiz-adv-x="53" unicode="˚"/><glyph d="M128 -259q-55 2 -89 30t-34 79q0 55 42 98t119 69l55 -17q-58 -7 -98 -49.5t-40 -90.5q0 -28 16.5 -44.5t45.5 -16.5q58 0 92 49l37 -52q-60 -60 -146 -55z" glyph-name="ogonek" horiz-adv-x="53" unicode="˛"/><glyph d="M-139 608q-59 0 -97 56q-14 24 -37 24q-32 0 -35 -42q0 -12 5 -30h-69q-2 9 -2 26q-1 50 26.5 81.5t71.5 31.5q61 0 97 -56q14 -24 38 -24q18 0 27 15t7 41q-1 3 -2.5 8t-1.5 7h68q2 -10 2 -14q6 -54 -21.5 -89t-76.5 -35z" glyph-name="tilde" horiz-adv-x="0" unicode="˜"/><glyph d="M75 595v111h103v-111h-103zM252 595v111h104v-111h-104z" glyph-name="hungarumlaut" horiz-adv-x="53" unicode="˝"/><glyph d="M-122 585l-125 128h110l102 -128h-87z" glyph-name="gravecomb" horiz-adv-x="0" unicode="̀"/><glyph d="M-370 585h-87l103 128h109z" glyph-name="acutecomb" horiz-adv-x="0" unicode="́"/><glyph d="M-139 608q-59 0 -97 56q-14 24 -37 24q-32 0 -35 -42q0 -12 5 -30h-69q-2 9 -2 26q-1 50 26.5 81.5t71.5 31.5q61 0 97 -56q14 -24 38 -24q18 0 27 15t7 41q-1 3 -2.5 8t-1.5 7h68q2 -10 2 -14q6 -54 -21.5 -89t-76.5 -35z" glyph-name="tildecomb" horiz-adv-x="0" unicode="̃"/><glyph d="M-136 -247v111h103v-111h-103z" glyph-name="dotbelowcomb" horiz-adv-x="0" unicode="̣"/><glyph d="M-354 -278v52q51 2 48 56h-53v111h104l-1 -111q1 -53 -26 -80.5t-72 -27.5z" glyph-name="uni0326" horiz-adv-x="0" unicode="̦"/><glyph d="M438 748l-125 128h110l102 -128h-87zM226 0l-203 700h89l161 -576l155 576h85l161 -576l153 576h89l-197 -700h-91l-157 561l-153 -561h-92z" glyph-name="Wgrave" horiz-adv-x="939" unicode="Ẁ"/><glyph d="M337 548l-125 128h110l102 -128h-87zM173 0l-160 500h95l112 -390l110 390h77l112 -390l110 390h96l-160 -500h-93l-102 356l-103 -356h-94z" glyph-name="wgrave" horiz-adv-x="738" unicode="ẁ"/><glyph d="M503 747h-87l103 128h109zM226 0l-203 700h89l161 -576l155 576h85l161 -576l153 576h89l-197 -700h-91l-157 561l-153 -561h-92z" glyph-name="Wacute" horiz-adv-x="939" unicode="Ẃ"/><glyph d="M403 547h-87l103 128h109zM173 0l-160 500h95l112 -390l110 390h77l112 -390l110 390h96l-160 -500h-93l-102 356l-103 -356h-94z" glyph-name="wacute" horiz-adv-x="738" unicode="ẃ"/><glyph d="M327 755v111h103v-111h-103zM504 755v111h104v-111h-104zM226 0l-203 700h89l161 -576l155 576h85l161 -576l153 576h89l-197 -700h-91l-157 561l-153 -561h-92z" glyph-name="Wdieresis" horiz-adv-x="939" unicode="Ẅ"/><glyph d="M227 555v111h103v-111h-103zM404 555v111h104v-111h-104zM173 0l-160 500h95l112 -390l110 390h77l112 -390l110 390h96l-160 -500h-93l-102 356l-103 -356h-94z" glyph-name="wdieresis" horiz-adv-x="738" unicode="ẅ"/><glyph d="M88 0v700h91v-700h-91zM83 -169v111h103v-111h-103z" glyph-name="uni1ECA" horiz-adv-x="267" unicode="Ị"/><glyph d="M81 0v500h89v-500h-89zM73 -184v111h104v-111h-104z" glyph-name="uni1ECB" horiz-adv-x="245" unicode="ị"/><glyph d="M376 -10q-139 0 -233.5 103.5t-94.5 256.5q0 155 93.5 256.5t234.5 101.5t234.5 -102t93.5 -258q0 -153 -94.5 -255.5t-233.5 -102.5zM375 77q104 0 171 76.5t67 191.5q0 120 -66.5 199t-170.5 79t-169.5 -78.5t-65.5 -197.5q0 -116 66 -193t168 -77zM325 -169v111h103 v-111h-103z" glyph-name="uni1ECC" horiz-adv-x="752" unicode="Ọ"/><glyph d="M276 -5q-103 0 -170.5 72t-67.5 183q0 113 67.5 185t170.5 72q104 0 170.5 -72t66.5 -185q0 -111 -67.5 -183t-169.5 -72zM275 75q69 0 111 49t42 125q0 79 -40 128t-112 49q-69 0 -110 -49t-41 -127q0 -77 41 -126t109 -49zM225 -169v111h103v-111h-103z" glyph-name="uni1ECD" horiz-adv-x="551" unicode="ọ"/><glyph d="M347 -8q-124 0 -199 74t-75 199v435h88v-435q0 -89 50.5 -139.5t135.5 -50.5t135.5 50.5t50.5 139.5v435h89v-435q0 -125 -75 -199t-200 -74zM296 -169v111h103v-111h-103z" glyph-name="uni1EE4" horiz-adv-x="695" unicode="Ụ"/><glyph d="M255 -13q-75 0 -131 51t-56 155v307h91v-300q0 -63 31.5 -99.5t81.5 -36.5q60 0 98.5 47t38.5 125v264h86v-500h-86v67q-20 -31 -60.5 -55.5t-93.5 -24.5zM233 -169v111h103v-111h-103z" glyph-name="uni1EE5" unicode="ụ"/><glyph d="M286 748l-125 128h110l102 -128h-87zM274 0v286l-256 414h97l203 -334l209 334h91l-256 -414v-286h-88z" glyph-name="Ygrave" horiz-adv-x="636" unicode="Ỳ"/><glyph d="M213 548l-125 128h110l102 -128h-87zM40 -200l-1 79h41q66 0 94 71l30 80l-196 470h95l145 -364l139 364h95l-224 -569q-25 -66 -65.5 -98.5t-106.5 -32.5h-46z" glyph-name="ygrave" horiz-adv-x="490" unicode="ỳ"/><glyph d="M94 224v62h500v-62h-500z" glyph-name="endash" horiz-adv-x="687" unicode="–"/><glyph d="M10 224v62h1000v-62h-1000z" glyph-name="emdash" horiz-adv-x="1019" unicode="—"/><glyph d="M34 577v111q0 53 26.5 80.5t72.5 27.5v-52q-52 -2 -49 -56h53v-111h-103z" glyph-name="quoteleft" horiz-adv-x="163" unicode="‘"/><glyph d="M33 576v52q50 2 49 56h-54v111h104v-111q-1 -54 -27 -81t-72 -27z" glyph-name="quoteright" horiz-adv-x="124" unicode="’"/><glyph d="M48 -108v52q50 2 49 56h-54v111h104v-111q-1 -53 -27 -80.5t-72 -27.5z" glyph-name="quotesinglbase" horiz-adv-x="239" unicode="‚"/><glyph d="M13 577l1 111q1 53 27 80.5t71 27.5v-52q-51 -2 -48 -56h53v-111h-104zM160 577v111q1 53 27 80.5t72 27.5v-52q-52 -2 -49 -56h53v-111h-103z" glyph-name="quotedblleft" horiz-adv-x="273" unicode="“"/><glyph d="M10 576v51q51 2 48 57h-53v110h104l-1 -110q0 -54 -26.5 -81t-71.5 -27zM161 576v51q51 2 48 57h-53v110h104l-1 -110q0 -54 -26.5 -81t-71.5 -27z" glyph-name="quotedblright" horiz-adv-x="275" unicode="”"/><glyph d="M51 -108v52q51 2 48 56h-53v111h104l-1 -111q0 -53 -26.5 -80.5t-71.5 -27.5zM201 -108v52q50 2 49 56h-54v111h104v-111q-1 -53 -27 -80.5t-72 -27.5z" glyph-name="quotedblbase" horiz-adv-x="388" unicode="„"/><glyph d="M196 245v194h181v-194h-181z" glyph-name="bullet" horiz-adv-x="600" unicode="•"/><glyph d="M71 0v111h104v-111h-104zM315 0v111h104v-111h-104zM559 0v111h104v-111h-104z" glyph-name="ellipsis" horiz-adv-x="733" unicode="…"/><glyph d="M57 0l516 750h89l-516 -750h-89zM197 470q-54 0 -92 40.5t-38 98.5t38 98.5t92 40.5t92 -40.5t38 -98.5t-38 -98.5t-92 -40.5zM197 536q26 0 44 21t18 51t-18 51t-44 21q-25 0 -43 -21t-18 -51t18 -51t43 -21zM835 -3q-54 0 -92 41t-38 99t38 98.5t92 40.5t92 -40.5 t38 -98.5t-38 -99t-92 -41zM529 -4q-54 0 -92 40.5t-38 98.5t38 98.5t92 40.5t92 -40.5t38 -98.5t-38 -98.5t-92 -40.5zM835 64q25 0 43 21t18 51t-18 50.5t-43 20.5q-26 0 -44 -20.5t-18 -50.5t18 -51t44 -21zM529 63q26 0 44 21t18 51t-18 50.5t-44 20.5t-43.5 -20.5 t-17.5 -50.5q0 -31 17.5 -51.5t43.5 -20.5z" glyph-name="perthousand" horiz-adv-x="1026" unicode="‰"/><glyph d="M207 95l-152 184l152 184h82l-152 -184l152 -184h-82z" glyph-name="guilsinglleft" horiz-adv-x="339" unicode="‹"/><glyph d="M63 95l152 184l-152 184h82l152 -184l-152 -184h-82z" glyph-name="guilsinglright" horiz-adv-x="339" unicode="›"/><glyph d="M356 58q74 0 117.5 44t53.5 127h83q-10 -113 -76.5 -180t-173.5 -66q-109 1 -181 70t-86 199h-68v73h65v61h-65v68h68q14 130 86 199.5t181 70.5q107 0 172.5 -65.5t74.5 -174.5h-84q-7 81 -50 122.5t-117 41.5q-75 -1 -121 -52.5t-53 -141.5h208v-68h-211v-61h211v-73 h-208q7 -90 53 -141.5t121 -52.5z" glyph-name="Euro" horiz-adv-x="644" unicode="€"/><glyph d="M214 461v205h-90v34h215l1 -34h-90l-1 -204zM374 462v237h43l85 -190l82 190h42v-237h-35v169l-72 -168h-36l-74 170v-171h-35z" glyph-name="trademark" horiz-adv-x="761" unicode="™"/><glyph d="M458 -9q-177 0 -302 112.5t-125 270.5q0 160 125 273t302 113q178 0 303 -113t125 -273v-10h-692q-6 0 -6 -4v-210q0 -11 9 -24q111 -114 262 -114q81 0 153 34t123 94h61q-58 -69 -147 -109t-191 -40zM194 385h531q4 0 4 7v210q0 16 -10 25q-112 110 -260 110t-261 -113 q-10 -12 -10 -26v-206q0 -7 6 -7z" glyph-name="estimated" horiz-adv-x="918" unicode="℮"/><glyph d="M64 252v71h600v-71h-600z" glyph-name="minus" horiz-adv-x="727" unicode="−"/><glyph d="M664 324h-208l-100 -117h308v-70h-368l-115 -136h-74l116 136h-159v70h219l100 117h-319v70h378l92 107h73l-92 -107h149v-70z" glyph-name="notequal" horiz-adv-x="727" unicode="≠"/><glyph d="M659 88l-552 274v61l552 271v-76l-470 -226l470 -227v-77zM440 19v-23h-115v23h115z" glyph-name="lessequal" horiz-adv-x="799" unicode="≤"/><glyph d="M106 88v77l469 227l-469 226v76l552 -271v-61zM104 19l336 16l220 -39l-335 -16z" glyph-name="greaterequal" horiz-adv-x="763" unicode="≥"/><glyph d="M575 291v-69h-62v-222h-83v76q-18 -34 -63 -60.5t-102 -26.5q-86 0 -152 63t-74 170h-43v69h45q12 98 75 156t146 58q57 0 101 -24t67 -62v281h83v-409h62zM277 426q-56 0 -95 -37t-50 -98h294q-11 61 -51.5 98t-97.5 37zM277 70q63 0 105 42t48 110h-299 q8 -68 47.5 -110t98.5 -42z" glyph-name="glyph354" horiz-adv-x="550"/><glyph d="M58 -1v701l287 1q91 0 148 -59t57 -151q0 -74 -40.5 -127.5t-109.5 -70.5l172 -293h-96l-168 285h-163v-286h-87zM145 363h183q60 0 98 34.5t38 94.5q0 61 -38 96.5t-98 35.5h-183v-261z" glyph-name="glyph355" horiz-adv-x="602"/><glyph d="M269 -11q-98 0 -161 73t-63 185q0 113 62 185.5t159 72.5q109 0 165 -81v76h85v-500h-85v74q-24 -39 -67 -62t-95 -23zM280 66q68 0 110.5 49t42.5 128q0 82 -42.5 133.5t-110.5 51.5q-66 0 -106.5 -50.5t-40.5 -130.5t40.5 -130.5t106.5 -50.5z" glyph-name="glyph356" horiz-adv-x="565"/><glyph d="M143 0q-64 0 -103 39t-39 107l3 554h85l-3 -542q0 -38 19 -57t50 -19h21v-82h-33z" glyph-name="glyph357" horiz-adv-x="223"/></font>
</defs>
</svg>
