<?xml version="1.0" standalone="no"?>
<!DOCTYPE svg PUBLIC "-//W3C//DTD SVG 1.1//EN" "http://www.w3.org/Graphics/SVG/1.1/DTD/svg11.dtd">
<svg xmlns="http://www.w3.org/2000/svg"><metadata>This SVG WebFont was generated by YouWorkForThem.
Copyright Â© 2017 by Samuel Oakes. All rights reserved.</metadata><defs><font horiz-adv-x="564" id="ywftsvg"><font-face ascent="800" bbox="-363 -445 1085 938" cap-height="700" descent="-200" font-family="" font-stretch="normal" font-weight="300" panose-1="0 0 4 0 0 0 0 0 0 0" underline-position="0" underline-thickness="0" unicode-range="U+0020-2265" units-per-em="1000" x-height="500"/><missing-glyph horiz-adv-x="600"/><glyph glyph-name=".notdef" horiz-adv-x="600"/><glyph glyph-name="glyph1" horiz-adv-x="600"/><glyph glyph-name="glyph2" horiz-adv-x="333"/><glyph glyph-name="space" horiz-adv-x="280" unicode=" "/><glyph d="M58 206l-6 544h59l-6 -544h-47zM43 0v85h81v-85h-81z" glyph-name="exclam" horiz-adv-x="225" unicode="!"/><glyph d="M31 627l-26 73v85h81v-85l-26 -73h-29zM179 627l-26 73v85h81v-85l-26 -73h-29z" glyph-name="quotedbl" horiz-adv-x="266" unicode="&quot;"/><glyph d="M178 0l25 178h-141l7 51h141l36 244h-142l8 50h139l26 179h50l-25 -179h195l25 179h50l-25 -179h141l-8 -50h-140l-34 -244h140l-7 -51h-140l-27 -178h-49l25 178h-196l-24 -178h-50zM260 229h195l35 244h-195z" glyph-name="numbersign" horiz-adv-x="750" unicode="#"/><glyph d="M339 -60v53q-105 6 -178 63.5t-80 159.5h64q9 -80 68 -125t155 -45q85 0 132.5 38.5t47.5 106.5q0 58 -42 89t-145 50q-140 25 -200.5 70t-60.5 124q0 76 66 129t159 53v47h53v-50q101 -13 157.5 -70t56.5 -149h-58q-12 169 -204 169q-73 0 -122 -37t-49 -92 q0 -58 52 -89t146 -47q140 -25 195 -68.5t55 -130.5q0 -82 -58 -134.5t-157 -60.5v-54h-53z" glyph-name="dollar" horiz-adv-x="643" unicode="$"/><glyph d="M191 458q-54 0 -92 44.5t-38 106.5t38 106.5t92 44.5t92 -44.5t38 -106.5t-38 -106.5t-92 -44.5zM69 0l516 750h59l-516 -750h-59zM191 510q32 0 55 29t23 70t-23 70t-55 29t-54.5 -29t-22.5 -70t22.5 -70t54.5 -29zM533 -10q-54 0 -92 44.5t-38 107.5q0 62 38 106.5 t92 44.5t92 -44.5t38 -106.5q0 -63 -38 -107.5t-92 -44.5zM533 43q32 0 54.5 28.5t22.5 70.5q0 41 -22.5 69.5t-54.5 28.5t-55 -28.5t-23 -69.5q0 -42 23 -70.5t55 -28.5z" glyph-name="percent" horiz-adv-x="723" unicode="%"/><glyph d="M299 -16q-93 0 -158 54.5t-65 135.5q0 133 133 214q-79 90 -79 165q0 67 48 113.5t118 46.5q67 0 113.5 -45t46.5 -109q0 -58 -46.5 -110.5t-109.5 -75.5l195 -196l53 92h64l-76 -133l138 -136h-78l-87 89q-85 -105 -210 -105zM259 414q59 20 100 60.5t41 85.5 q0 42 -30 71t-74 29q-45 0 -76.5 -29t-31.5 -70q0 -79 71 -147zM301 42q97 0 166 89l-219 216q-116 -68 -116 -162q0 -63 48 -103t121 -40z" glyph-name="ampersand" horiz-adv-x="743" unicode="&amp;"/><glyph d="M31 627l-26 73v85h81v-85l-26 -73h-29z" glyph-name="quotesingle" horiz-adv-x="100" unicode="'"/><glyph d="M261 -224q-75 96 -121 231t-46 285t45 285.5t122 212.5h54q-82 -92 -126 -223.5t-44 -274.5q0 -142 47 -275.5t120 -240.5h-51z" glyph-name="parenleft" horiz-adv-x="310" unicode="("/><glyph d="M27 -224q73 107 120 240.5t47 275.5q0 143 -44 274.5t-126 223.5h54q77 -77 122 -212.5t45 -285.5t-46 -285t-121 -231h-51z" glyph-name="parenright" horiz-adv-x="330" unicode=")"/><glyph d="M88 521l-35 21l52 74l-91 -6v41l91 -7l-52 74l35 21l40 -81l39 81l36 -21l-52 -74l91 7v-41l-91 6l52 -74l-36 -21l-39 81z" glyph-name="asterisk" horiz-adv-x="255" unicode="*"/><glyph d="M383 29v235h-215v44h215v234h42v-234h215v-44h-215v-235h-42z" glyph-name="plus" horiz-adv-x="807" unicode="+"/><glyph d="M13 -90v38q20 1 31 15.5t9 36.5h-43v85h81v-85q1 -41 -21.5 -65.5t-56.5 -24.5z" glyph-name="comma" horiz-adv-x="131" unicode=","/><glyph d="M94 303v42h350v-42h-350z" glyph-name="hyphen" horiz-adv-x="537" unicode="-"/><glyph d="M30 0v85h81v-85h-81z" glyph-name="period" horiz-adv-x="161" unicode="."/><glyph d="M72 -200l440 950h54l-439 -950h-55z" glyph-name="slash" horiz-adv-x="576" unicode="/"/><glyph d="M313 -11q-116 0 -184 95.5t-68 259.5t68.5 260t185.5 96q116 0 184 -96t68 -260t-68.5 -259.5t-185.5 -95.5zM313 43q92 0 145.5 81t53.5 220t-54 220.5t-146 81.5q-90 0 -143 -81.5t-53 -219.5q0 -139 53 -220.5t144 -81.5z" glyph-name="zero" horiz-adv-x="628" unicode="0"/><glyph d="M468 0h-367v51h169v570l-159 -126v61l165 132h46v-637h146v-51z" glyph-name="one" horiz-adv-x="550" unicode="1"/><glyph d="M55 0v55l250 227q76 69 105.5 115.5t29.5 99.5q0 71 -44.5 114t-118.5 43q-75 0 -122 -43.5t-52 -118.5h-56q7 93 72 152.5t157 59.5q95 0 155.5 -59t60.5 -147q0 -63 -30.5 -116t-101.5 -118l-230 -211l378 2v-55h-453z" glyph-name="two" horiz-adv-x="554" unicode="2"/><glyph d="M364 370q58 -16 102 -59t44 -118q0 -82 -61.5 -140t-164.5 -58t-169 61.5t-70 158.5h54q2 -74 54 -121.5t129 -47.5q82 0 129.5 45t47.5 104q0 66 -59 107t-149 41h-17v47h14q82 0 134.5 39t52.5 100q0 55 -44.5 90t-114.5 35q-71 0 -116.5 -42.5t-51.5 -115.5h-52 q6 97 67 153.5t159 56.5q90 0 147.5 -49t57.5 -125q0 -56 -35.5 -99t-87.5 -63z" glyph-name="three" horiz-adv-x="556" unicode="3"/><glyph d="M427 0h-51v154h-348v50l329 496h70v-496h122v-51h-122v-153zM376 647l-289 -443h289v443z" glyph-name="four" horiz-adv-x="577" unicode="4"/><glyph d="M284 468q98 0 162.5 -66t64.5 -167q0 -99 -64 -166.5t-170 -67.5q-94 0 -162.5 64.5t-61.5 155.5h51q0 -74 50 -121t126 -47q83 0 131.5 54t48.5 129q0 80 -52 131t-131 51q-89 0 -149 -69h-55l57 351h328v-51h-287l-42 -240q67 59 155 59z" glyph-name="five" horiz-adv-x="562" unicode="5"/><glyph d="M296 -11q-110 0 -183 89.5t-73 263.5q0 186 70.5 277t185.5 91q94 0 151 -49.5t68 -125.5h-54q-14 58 -56 89.5t-105 31.5q-101 0 -153.5 -82t-52.5 -239v-34q27 70 84.5 105.5t128.5 35.5q96 0 157 -61.5t61 -158.5q0 -102 -64.5 -167.5t-164.5 -65.5zM300 42 q78 0 123 51.5t45 129.5q0 73 -47 118.5t-121 45.5t-124 -50t-50 -124q0 -68 49 -119.5t125 -51.5z" glyph-name="six" horiz-adv-x="565" unicode="6"/><glyph d="M190 0h-59l308 648h-405v52h462v-51z" glyph-name="seven" horiz-adv-x="530" unicode="7"/><glyph d="M279 -6q-99 0 -163 57t-64 137q0 139 140 184q-55 20 -88.5 65t-33.5 96q0 70 59 121t150 51t150.5 -51t59.5 -121q0 -51 -34 -96t-89 -65q141 -45 141 -184q0 -80 -64.5 -137t-163.5 -57zM279 409q67 0 110 34.5t43 87.5q0 50 -43.5 86t-109.5 36t-109.5 -36t-43.5 -86 q0 -53 43 -87.5t110 -34.5zM279 47q75 0 123.5 42.5t48.5 104.5q0 65 -48 106.5t-124 41.5t-124 -41.5t-48 -106.5q0 -62 48.5 -104.5t123.5 -42.5z" glyph-name="eight" horiz-adv-x="559" unicode="8"/><glyph d="M269 710q110 0 183 -89.5t73 -263.5q0 -186 -70.5 -277t-185.5 -91q-94 0 -151 49.5t-68 125.5h54q14 -58 56 -89.5t105 -31.5q101 0 153.5 82t52.5 239v34q-27 -70 -84.5 -105.5t-128.5 -35.5q-96 0 -157 61.5t-61 158.5q0 102 64.5 167.5t164.5 65.5zM265 657 q-78 0 -123 -51.5t-45 -129.5q0 -73 47 -118.5t121 -45.5t124 50t50 124q0 68 -49 119.5t-125 51.5z" glyph-name="nine" horiz-adv-x="565" unicode="9"/><glyph d="M49 416v85h81v-85h-81zM49 0v85h81v-85h-81z" glyph-name="colon" horiz-adv-x="235" unicode=":"/><glyph d="M100 415v85h81v-85h-81zM103 -90v38q20 1 31 15.5t9 36.5h-43v85h81v-85q1 -41 -21.5 -65.5t-56.5 -24.5z" glyph-name="semicolon" horiz-adv-x="295" unicode=";"/><glyph d="M646 26l-552 279v61l552 277v-52l-508 -256l508 -253v-56z" glyph-name="less" horiz-adv-x="739" unicode="&lt;"/><glyph d="M64 336v46h600v-46h-600zM64 149v46h600v-46h-600z" glyph-name="equal" horiz-adv-x="727" unicode="="/><glyph d="M94 26v56l508 253l-508 256v52l552 -277v-61z" glyph-name="greater" horiz-adv-x="739" unicode=">"/><glyph d="M197 179v52q0 54 18.5 95t45 66t53 46.5t45 50t18.5 64.5q0 61 -45 103.5t-109 42.5q-59 0 -103.5 -39.5t-50.5 -95.5h-51q5 77 64 131t141 54q86 0 145.5 -57t59.5 -139q0 -40 -18.5 -73t-45 -56.5t-52.5 -48t-44.5 -59t-18.5 -76.5v-61h-52zM183 0v85h81v-85h-81z" glyph-name="question" horiz-adv-x="496" unicode="?"/><glyph d="M336 -5q-128 0 -210 81t-82 207q0 125 88 212.5t212 87.5q122 0 199.5 -72.5t77.5 -186.5q0 -80 -36 -130.5t-93 -50.5q-65 0 -82 53q-39 -57 -101 -57q-53 0 -85.5 35t-32.5 93q0 69 41.5 118t100.5 49q56 0 84 -39l3 33h55l-20 -174q-1 -7 -1 -19q0 -46 38 -46 q36 0 57.5 36t21.5 98q0 97 -61.5 155t-165.5 58q-106 0 -176.5 -72t-70.5 -180t66 -175t173 -67h233v-47h-233zM316 185q37 0 64 34.5t27 82.5q0 40 -19 62.5t-52 22.5q-38 0 -63.5 -34.5t-25.5 -85.5q0 -38 18.5 -60t50.5 -22z" glyph-name="at" horiz-adv-x="605" unicode="@"/><glyph d="M103 0l-63 1l267 699h63l269 -700h-63l-75 201h-324zM198 259h283l-142 380z" glyph-name="A" horiz-adv-x="679" unicode="A"/><glyph d="M95 -2v702h302q69 -3 117 -55.5t48 -125.5q0 -45 -24.5 -86t-67.5 -57q54 -21 86 -69t32 -117q0 -80 -54 -136t-132 -56h-307zM152 394h236q52 0 87 36t35 88q0 55 -36 93.5t-86 38.5h-236v-256zM152 53h234q61 0 104 40t43 97q0 65 -43 110t-104 45h-234v-292z" glyph-name="B" horiz-adv-x="643" unicode="B"/><glyph d="M371 -6q-137 0 -224 97.5t-87 254.5q0 161 88.5 260t226.5 99q110 0 187 -63t93 -160h-56q-18 73 -79 121t-143 48q-112 0 -184 -85t-72 -222q0 -131 70.5 -211.5t181.5 -80.5q84 0 147 47.5t79 120.5h56q-17 -100 -95 -163t-189 -63z" glyph-name="C" horiz-adv-x="710" unicode="C"/><glyph d="M95 -2v702l257 2q144 0 228.5 -95t84.5 -252q0 -161 -81.5 -258t-221.5 -97zM152 53l194 2q122 0 193 80.5t71 215.5t-69.5 215.5t-189.5 79.5l-199 -2v-591z" glyph-name="D" horiz-adv-x="725" unicode="D"/><glyph d="M95 0v700h429v-53h-372v-266h351v-53h-351v-275h372v-53h-429z" glyph-name="E" horiz-adv-x="574" unicode="E"/><glyph d="M95 0v700h429v-53h-372v-266h351v-53h-351v-328h-57z" glyph-name="F" horiz-adv-x="544" unicode="F"/><glyph d="M379 -6q-136 0 -227.5 98.5t-91.5 253.5q0 160 92.5 260.5t231.5 100.5q107 0 189 -64t96 -161h-56q-12 73 -78 123t-149 50q-113 0 -190.5 -87.5t-77.5 -223.5q0 -129 76.5 -212t187.5 -83q37 0 76 14t75.5 42t61.5 76.5t28 109.5h-219v57l271 -2v-346l-54 -1l1 135 q-39 -69 -105.5 -104.5t-137.5 -35.5z" glyph-name="G" horiz-adv-x="765" unicode="G"/><glyph d="M95 0v700h57v-319h389v319h57v-700h-57v328h-389v-328h-57z" glyph-name="H" horiz-adv-x="693" unicode="H"/><glyph d="M100 0v700h55v-700h-55z" glyph-name="I" horiz-adv-x="255" unicode="I"/><glyph d="M224 -8q-87 0 -139.5 53t-54.5 142v54h55v-54q2 -65 39.5 -104t98.5 -39q65 0 102.5 41t37.5 114v501h56v-501q0 -96 -52.5 -151.5t-142.5 -55.5z" glyph-name="J" horiz-adv-x="504" unicode="J"/><glyph d="M95 0v700h55v-364l345 364l75 1l-281 -298l285 -403h-72l-252 361l-100 -106v-255h-55z" glyph-name="K" horiz-adv-x="599" unicode="K"/><glyph d="M95 0v700h57v-647h322v-53h-379z" glyph-name="L" horiz-adv-x="509" unicode="L"/><glyph d="M95 0v700h80l239 -649l233 649h80v-700h-55v606l-218 -606h-83l-221 614v-614h-55z" glyph-name="M" horiz-adv-x="822" unicode="M"/><glyph d="M555 -1l-405 617v-616h-55v700h65l405 -617v616h55v-700h-65z" glyph-name="N" horiz-adv-x="715" unicode="N"/><glyph d="M382 -10q-138 0 -230 105t-92 255q0 154 90 256t232 102t232 -103t90 -257q0 -150 -91.5 -254t-230.5 -104zM380 46q118 0 193.5 86t75.5 212q0 132 -74.5 220.5t-192.5 88.5t-191.5 -88t-73.5 -219q0 -126 74 -213t189 -87z" glyph-name="O" horiz-adv-x="764" unicode="O"/><glyph d="M95 -1v701l267 1q92 -1 148.5 -57t56.5 -147q0 -90 -58 -145t-153 -55h-206v-298h-55zM150 349h212q69 0 111 40.5t42 107.5q0 69 -42 111t-111 42h-211z" glyph-name="P" horiz-adv-x="607" unicode="P"/><glyph d="M663 -26l-109 84q-78 -58 -181 -58q-133 0 -223 100.5t-90 249.5q0 150 89 249t224 99q136 0 224.5 -99t88.5 -251q0 -155 -92 -253l104 -82zM371 54q75 0 136 41l-97 75l39 39l100 -78q80 85 80 213q0 127 -74.5 213.5t-181.5 86.5q-108 0 -180.5 -85.5t-72.5 -212.5 q0 -125 72 -208.5t179 -83.5z" glyph-name="Q" horiz-adv-x="758" unicode="Q"/><glyph d="M95 -1v701l267 1q100 1 152.5 -47.5t52.5 -137.5q0 -50 -31.5 -95t-80.5 -60q24 -7 40.5 -20t26 -26.5t15.5 -37t8 -41.5t4 -52q7 -95 11.5 -124.5t20.5 -59.5h-63q-4 10 -7 19.5t-5 25.5t-3 25.5t-3 40t-3 48.5q0 5 -1.5 27.5t-2.5 29t-3.5 25.5t-6 25.5t-10 20.5 t-16 19.5t-22 13t-30 10t-38.5 2.5h-217v-333h-55zM150 383h212q66 0 109.5 38t43.5 95q0 64 -39.5 99t-113.5 35h-211z" glyph-name="R" horiz-adv-x="655" unicode="R"/><glyph d="M332 -7q-111 0 -190 58t-87 165h64q9 -80 68 -125t155 -45q85 0 132.5 38.5t47.5 106.5q0 58 -42 89t-145 50q-140 25 -200.5 70t-60.5 124q0 76 65 129t160 53q123 0 195 -59.5t72 -162.5h-58q-12 169 -204 169q-73 0 -122 -37t-49 -92q0 -58 52 -89t146 -47 q140 -25 195 -68.5t55 -130.5q0 -89 -68.5 -142.5t-180.5 -53.5z" glyph-name="S" horiz-adv-x="636" unicode="S"/><glyph d="M277 0v647h-257v53h570v-53h-256v-647h-57z" glyph-name="T" horiz-adv-x="610" unicode="T"/><glyph d="M345 -8q-118 0 -189 70t-71 191v447h56v-447q0 -96 55.5 -151.5t148.5 -55.5t148.5 55.5t55.5 151.5v447h56v-447q0 -121 -71 -191t-189 -70z" glyph-name="U" horiz-adv-x="690" unicode="U"/><glyph d="M282 0l-252 700h56l239 -649l233 649h59l-252 -700h-83z" glyph-name="V" horiz-adv-x="647" unicode="V"/><glyph d="M224 0l-189 700h54l174 -625l170 625h56l171 -626l169 626h56l-189 -700h-75l-160 599l-162 -599h-75z" glyph-name="W" horiz-adv-x="920" unicode="W"/><glyph d="M40 0l257 350l-257 350h67l224 -304l223 304h67l-257 -350l257 -350h-67l-223 304l-224 -304h-67z" glyph-name="X" horiz-adv-x="661" unicode="X"/><glyph d="M283 0v292l-253 408h61l221 -359l221 359h61l-253 -408v-292h-58z" glyph-name="Y" horiz-adv-x="624" unicode="Y"/><glyph d="M60 0v53l479 594h-473v53h543v-53l-482 -594h476v-53h-543z" glyph-name="Z" horiz-adv-x="659" unicode="Z"/><glyph d="M83 -317v1134h187v-42h-139v-1050h139v-42h-187z" glyph-name="bracketleft" horiz-adv-x="270" unicode="["/><glyph d="M522 -250l-527 1000h55l526 -1000h-54z" glyph-name="backslash" horiz-adv-x="576" unicode="\"/><glyph d="M83 -317v42h139v1050h-139v42h187v-1134h-187z" glyph-name="bracketright" horiz-adv-x="270" unicode="]"/><glyph d="M94 -38v38h500v-38h-500z" glyph-name="underscore" horiz-adv-x="687" unicode="_"/><glyph d="M-93 600l-115 117h69l105 -117h-59z" glyph-name="grave" horiz-adv-x="0" unicode="`"/><glyph d="M219 -10q-70 0 -119.5 41t-49.5 110q0 68 49 108q46 36 133 44q33 3 54.5 6.5t50.5 11.5t44.5 23t15.5 36q0 45 -37 69.5t-91 24.5q-60 0 -98 -28.5t-45 -79.5l-57 -1q8 72 61.5 114.5t137.5 42.5q86 0 135 -45t49 -119v-348h-55v78q-67 -88 -178 -88zM224 44 q65 0 119 42t54 122v81q-31 -34 -148 -44q-142 -13 -142 -103q0 -47 35.5 -72.5t81.5 -25.5z" glyph-name="a" horiz-adv-x="527" unicode="a"/><glyph d="M314 -11q-54 0 -102 27t-72 71v-87h-55v700h55v-295q23 45 72 72.5t105 27.5q97 0 159 -72.5t62 -185.5q0 -112 -63 -185t-161 -73zM313 43q76 0 121 57t45 147q0 91 -45 148t-121 57q-80 0 -128.5 -59t-48.5 -151q0 -88 48.5 -143.5t128.5 -55.5z" glyph-name="b" horiz-adv-x="588" unicode="b"/><glyph d="M270 -7q-95 0 -157.5 71.5t-62.5 185.5q0 117 62.5 188.5t161.5 71.5q78 0 134 -47.5t66 -121.5h-52q-10 52 -52 85t-94 33q-76 0 -122 -58.5t-46 -153.5q0 -90 45.5 -145.5t119.5 -55.5q55 0 97.5 34t51.5 85h52q-10 -75 -67 -123.5t-137 -48.5z" glyph-name="c" horiz-adv-x="524" unicode="c"/><glyph d="M274 -11q-98 0 -161 73t-63 185q0 113 62 185.5t159 72.5q56 0 105 -27.5t72 -72.5v295h55v-700h-55v87q-24 -44 -72 -71t-102 -27zM275 43q80 0 128.5 55.5t48.5 143.5q0 92 -48.5 151t-128.5 59q-76 0 -121 -57t-45 -148q0 -90 45 -147t121 -57z" glyph-name="d" horiz-adv-x="588" unicode="d"/><glyph d="M276 -11q-100 0 -163 70.5t-63 186.5t61 188t166 72q100 0 158 -73.5t59 -192.5h-385v-1q0 -90 45.5 -143.5t124.5 -53.5q56 0 99.5 34t54.5 85h53q-10 -75 -68.5 -123.5t-141.5 -48.5zM112 291h321q-10 78 -46.5 120.5t-111.5 42.5q-73 0 -113 -44t-50 -119z" glyph-name="e" horiz-adv-x="544" unicode="e"/><glyph d="M87 0v449h-67v51h67v74q0 60 31.5 93t86.5 33h55v-52h-55q-28 0 -45.5 -19t-17.5 -55v-74h114v-51h-114v-449h-55z" glyph-name="f" horiz-adv-x="280" unicode="f"/><glyph d="M275 -206q-87 0 -144.5 46t-61.5 122h56q5 -57 48.5 -87t101.5 -30q80 0 126.5 46.5t46.5 137.5v66q-23 -45 -72 -72.5t-105 -27.5q-97 0 -159 72.5t-62 185.5q0 112 63 185t161 73q54 0 102 -27t72 -71v87h55v-471q0 -116 -62.5 -175.5t-165.5 -59.5zM275 48 q80 0 128.5 59t48.5 151q0 88 -48.5 143.5t-128.5 55.5q-76 0 -121 -57t-45 -147q0 -91 45 -148t121 -57z" glyph-name="g" horiz-adv-x="583" unicode="g"/><glyph d="M85 0v700h55v-272q21 36 64 60.5t96 24.5q85 0 134.5 -57t49.5 -149v-307h-55v307q-1 65 -38 111t-95 46q-73 0 -114 -49t-42 -134v-281h-55z" glyph-name="h" unicode="h"/><glyph d="M80 627v73h65v-73h-65zM85 0v500h55v-500h-55z" glyph-name="i" horiz-adv-x="225" unicode="i"/><glyph d="M78 627v73h65v-73h-65zM0 -177v54h19q28 0 45.5 18.5t17.5 53.5v551h55v-551q0 -60 -31.5 -93t-86.5 -33h-19z" glyph-name="j" horiz-adv-x="218" unicode="j"/><glyph d="M85 0v700h55v-459l248 259h68l-184 -193l203 -307l-66 1l-176 262l-93 -97v-166h-55z" glyph-name="k" horiz-adv-x="505" unicode="k"/><glyph d="M85 0v700h55v-700h-55z" glyph-name="l" horiz-adv-x="225" unicode="l"/><glyph d="M85 0v500h55v-72q21 36 64 60.5t96 24.5q58 0 100 -28t64 -77q24 45 71.5 75t111.5 30q83 0 132 -57t49 -149v-307h-55v307q0 70 -36.5 113.5t-96.5 43.5q-67 0 -111 -50t-45 -133v-281h-55v307q0 70 -36.5 113.5t-96.5 43.5q-67 0 -111 -50t-45 -133v-281h-55z" glyph-name="m" horiz-adv-x="908" unicode="m"/><glyph d="M85 0v500h55v-72q21 36 64 60.5t96 24.5q85 0 134.5 -57t49.5 -149v-307h-55v307q0 70 -37 113.5t-96 43.5q-67 0 -111 -50t-45 -133v-281h-55z" glyph-name="n" unicode="n"/><glyph d="M282 -5q-102 0 -167 71.5t-65 183.5q0 113 65 185t167 72q107 0 169 -71t62 -186q0 -112 -65 -183.5t-166 -71.5zM280 47q79 0 129 56.5t50 144.5q0 93 -46.5 150t-130.5 57q-77 0 -126.5 -57.5t-49.5 -147.5q0 -89 49 -146t125 -57z" glyph-name="o" horiz-adv-x="563" unicode="o"/><glyph d="M85 -200v700h55v-87q24 44 72 71t102 27q98 0 161 -73t63 -185q0 -113 -62 -185.5t-159 -72.5q-56 0 -105 27.5t-72 72.5v-295h-55zM313 48q76 0 121 57t45 148q0 90 -45 147t-121 57q-80 0 -128.5 -55.5t-48.5 -143.5q0 -92 48.5 -151t128.5 -59z" glyph-name="p" horiz-adv-x="588" unicode="p"/><glyph d="M448 -200v295q-23 -45 -72 -72.5t-105 -27.5q-97 0 -159 72.5t-62 185.5q0 112 63 185t161 73q54 0 102 -27t72 -71v87h55v-700h-55zM275 48q80 0 128.5 59t48.5 151q0 88 -48.5 143.5t-128.5 55.5q-76 0 -121 -57t-45 -147q0 -91 45 -148t121 -57z" glyph-name="q" horiz-adv-x="588" unicode="q"/><glyph d="M85 0v500h55v-72q13 32 53.5 58.5t114.5 21.5v-54q-168 7 -168 -157v-297h-55z" glyph-name="r" horiz-adv-x="338" unicode="r"/><glyph d="M250 -11q-82 0 -141.5 45t-63.5 126h58q4 -59 46.5 -90t107.5 -31t93.5 28.5t28.5 69.5q0 40 -29.5 60t-97.5 32q-99 17 -145.5 50.5t-46.5 94.5q0 57 48.5 96t118.5 39q87 0 142 -43.5t54 -126.5h-54q-3 121 -139 121q-50 0 -83 -24.5t-33 -61.5q0 -39 35 -60t101 -32 q100 -17 142 -49t42 -98q0 -62 -48 -104t-136 -42z" glyph-name="s" horiz-adv-x="479" unicode="s"/><glyph d="M203 0q-55 0 -86.5 33t-31.5 93v323h-75v51h75v138h55v-138h116v-51h-116v-323q0 -35 17.5 -53.5t45.5 -18.5h55v-54h-55z" glyph-name="t" horiz-adv-x="288" unicode="t"/><glyph d="M264 -13q-85 0 -134.5 57t-49.5 149v307h55v-307q1 -65 38 -111t95 -46q73 0 114 49t42 134v281h55v-500h-55v72q-21 -36 -64 -60.5t-96 -24.5z" glyph-name="u" unicode="u"/><glyph d="M209 0l-189 500h59l168 -446l168 446h61l-191 -500h-76z" glyph-name="v" horiz-adv-x="496" unicode="v"/><glyph d="M177 0l-152 500h66l124 -447l123 447h66l124 -447l123 447h66l-151 -500h-77l-117 427l-117 -427h-78z" glyph-name="w" horiz-adv-x="742" unicode="w"/><glyph d="M30 0l176 250l-176 250h64l144 -204l143 204h64l-176 -250l176 -250h-63l-144 205l-145 -205h-63z" glyph-name="x" horiz-adv-x="475" unicode="x"/><glyph d="M45 -200v53h28q75 0 104 72l40 104l-197 471h65l160 -398l160 398h64l-234 -582q-22 -58 -57.5 -87.5t-104.5 -30.5h-28z" glyph-name="y" horiz-adv-x="489" unicode="y"/><glyph d="M50 0v51l327 398h-327v52l393 -1v-51l-324 -398h322v-51h-391z" glyph-name="z" horiz-adv-x="503" unicode="z"/><glyph d="M242 -310q-43 0 -77.5 38t-34.5 90v237q0 75 -13.5 110.5t-61.5 59.5v49q48 24 61.5 60.5t13.5 108.5v237q0 56 33.5 91.5t77.5 35.5h25v-41q-92 0 -92 -96v-242q0 -64 -14 -106t-59 -73q45 -30 59 -72.5t14 -106.5v-245q0 -93 92 -93v-42h-24z" glyph-name="braceleft" horiz-adv-x="319" unicode="{"/><glyph d="M121 -150v900h45v-900h-45z" glyph-name="bar" horiz-adv-x="287" unicode="|"/><glyph d="M55 -310v42q92 0 92 93v245q0 64 14 106.5t59 72.5q-45 31 -59 73t-14 106v242q0 96 -92 96v41h25q44 0 77.5 -35.5t33.5 -91.5v-237q0 -72 13.5 -108.5t61.5 -60.5v-49q-48 -24 -61.5 -59.5t-13.5 -110.5v-237q0 -52 -34.5 -90t-77.5 -38h-24z" glyph-name="braceright" horiz-adv-x="319" unicode="}"/><glyph d="M103 465v85h81v-85h-81zM112 -200l6 544h47l6 -544h-59z" glyph-name="exclamdown" horiz-adv-x="285" unicode="¡"/><glyph d="M255 0v75q-87 8 -143.5 78t-56.5 178q0 110 55 180t145 79v77h48v-77q70 -8 118.5 -53.5t57.5 -114.5h-52q-10 52 -52 85t-94 33q-76 0 -122 -58.5t-46 -153.5q0 -90 45.5 -145.5t119.5 -55.5q55 0 97.5 34t51.5 85h52q-9 -68 -57.5 -115t-118.5 -55v-76h-48z" glyph-name="cent" horiz-adv-x="536" unicode="¢"/><glyph d="M555 147q-4 -72 -44 -115t-105 -43q-50 0 -129 36.5t-109 36.5q-32 0 -52 -17.5t-23 -47.5h-54q4 42 29 73t63 40q22 40 22 81q0 51 -22 133h-85v47h70q-23 80 -23 148q1 86 63 146.5t156 60.5t150.5 -50t64.5 -139h-51q-19 139 -164 139q-69 0 -118.5 -48t-49.5 -116 q0 -19 3 -39.5t6 -32.5t10.5 -36t9.5 -33h235v-47h-219q20 -82 20 -134q0 -36 -17 -78q29 -7 102.5 -38t106.5 -31q95 0 100 104h54z" glyph-name="sterling" horiz-adv-x="600" unicode="£"/><glyph d="M302 0v166h-209v44h209v104h-209v46h209l-258 390h64l223 -342l224 342h64l-258 -390h212v-46h-212v-104h212v-44h-212v-166h-59z" glyph-name="yen" horiz-adv-x="663" unicode="¥"/><glyph d="M121 390v360h45v-360h-45zM121 -150v360h45v-360h-45z" glyph-name="brokenbar" horiz-adv-x="287" unicode="¦"/><glyph d="M98 601v85h81v-85h-81zM250 601v85h81v-85h-81z" glyph-name="dieresis" horiz-adv-x="53" unicode="¨"/><glyph d="M438 -10q-159 0 -272 113t-113 272t113 272t272 113t272 -113t113 -272t-113 -272t-272 -113zM438 31q144 0 244.5 100.5t100.5 243.5t-100.5 243.5t-244.5 100.5q-143 0 -243.5 -100.5t-100.5 -243.5t100.5 -243.5t243.5 -100.5zM435 168q-81 0 -132 57.5t-51 149.5 t51.5 151t133.5 59q64 0 110.5 -38t55.5 -98h-47q-9 40 -42 65t-75 25q-61 0 -99 -46t-38 -120q0 -70 37.5 -113t96.5 -43q44 0 78 24.5t42 63.5h47q-10 -60 -56.5 -98.5t-111.5 -38.5z" glyph-name="copyright" horiz-adv-x="876" unicode="©"/><glyph d="M267 95l-152 184l152 184h58l-152 -184l152 -184h-58zM439 95l-152 184l152 184h59l-152 -184l152 -184h-59z" glyph-name="guillemotleft" horiz-adv-x="612" unicode="«"/><glyph d="M94 236v38h350v-38h-350z" glyph-name="uni00AD" horiz-adv-x="590" unicode="­"/><glyph d="M438 -10q-159 0 -272 113t-113 272t113 272t272 113t272 -113t113 -272t-113 -272t-272 -113zM438 31q144 0 244.5 100.5t100.5 243.5t-100.5 243.5t-244.5 100.5q-143 0 -243.5 -100.5t-100.5 -243.5t100.5 -243.5t243.5 -100.5zM544 177q-7 15 -13 92q0 4 -1 14.5 t-1.5 14t-1.5 12.5t-2.5 12.5t-4 10t-5.5 9.5t-8 7.5t-11 6t-13.5 3t-17.5 1.5h-114v-180h-47v404h159q58 0 90.5 -29.5t32.5 -82.5q0 -58 -51 -88q23 -13 30.5 -35.5t10.5 -63.5q6 -79 21 -108h-53zM351 405h112q34 0 56 19t22 48q0 67 -78 67h-112v-134z" glyph-name="registered" horiz-adv-x="876" unicode="®"/><glyph d="M34 607v46h310v-46h-310z" glyph-name="macron" horiz-adv-x="67" unicode="¯"/><glyph d="M248 492q-55 0 -94.5 39.5t-39.5 94.5q0 56 39 95t95 39q55 0 94.5 -39.5t39.5 -94.5t-39.5 -94.5t-94.5 -39.5zM248 530q40 0 68 28t28 68t-28 68t-68 28t-68 -28t-28 -68t28 -68t68 -28z" glyph-name="degree" horiz-adv-x="495" unicode="°"/><glyph d="M-149 600h-59l105 117h69z" glyph-name="acute" horiz-adv-x="0" unicode="´"/><glyph d="M101 262v85h81v-85h-81z" glyph-name="periodcentered" horiz-adv-x="270" unicode="·"/><glyph d="M148 -260q-32 0 -65 17t-49 42l32 16q13 -16 36.5 -27.5t45.5 -11.5q27 0 45 18.5t18 45.5q0 28 -18 44t-47 16q-18 0 -42 -8l-31 22l42 86h37l-32 -70q15 3 28 3q43 0 71.5 -26t28.5 -67q0 -42 -29 -71t-71 -29z" glyph-name="cedilla" horiz-adv-x="53" unicode="¸"/><glyph d="M114 95l152 184l-152 184h58l152 -184l-152 -184h-58zM286 95l152 184l-152 184h59l152 -184l-152 -184h-59z" glyph-name="guillemotright" horiz-adv-x="612" unicode="»"/><glyph d="M232 464v85h81v-85h-81zM273 -200q-86 0 -145.5 57t-59.5 139q0 40 18.5 73t45 56.5t52.5 48t44.5 59t18.5 76.5v61h52v-52q0 -54 -18.5 -95t-45 -66t-53 -46.5t-45 -50t-18.5 -64.5q0 -61 45 -103.5t109 -42.5q59 0 103.5 39.5t50.5 95.5h51q-5 -77 -64 -131t-141 -54z " glyph-name="questiondown" horiz-adv-x="504" unicode="¿"/><glyph d="M336 761l-115 117h69l105 -117h-59zM103 0l-63 1l267 699h63l269 -700h-63l-75 201h-324zM198 259h283l-142 380z" glyph-name="Agrave" horiz-adv-x="679" unicode="À"/><glyph d="M366 759h-59l105 117h69zM103 0l-63 1l267 699h63l269 -700h-63l-75 201h-324zM198 259h283l-142 380z" glyph-name="Aacute" horiz-adv-x="679" unicode="Á"/><glyph d="M304 852h71l100 -100h-67l-68 67l-67 -67h-69zM103 0l-63 1l267 699h63l269 -700h-63l-75 201h-324zM198 259h283l-142 380z" glyph-name="Acircumflex" horiz-adv-x="679" unicode="Â"/><glyph d="M412 748q-57 0 -90 53q-20 33 -52 33q-22 0 -36 -17t-14 -45q0 -10 1 -15h-44q-1 5 -1 16q0 46 26 75t66 29q56 0 90 -53q20 -33 53 -33q23 0 36.5 17.5t13.5 45.5q0 2 -0.5 6.5t-0.5 6.5h43q1 -6 1 -18q0 -44 -25.5 -72.5t-66.5 -28.5zM103 0l-63 1l267 699h63l269 -700 h-63l-75 201h-324zM198 259h283l-142 380z" glyph-name="Atilde" horiz-adv-x="679" unicode="Ã"/><glyph d="M221 754v85h81v-85h-81zM373 754v85h81v-85h-81zM103 0l-63 1l267 699h63l269 -700h-63l-75 201h-324zM198 259h283l-142 380z" glyph-name="Adieresis" horiz-adv-x="679" unicode="Ä"/><glyph d="M340 745q-40 0 -69 28.5t-29 67.5q0 40 29 68.5t69 28.5q39 0 67 -28.5t28 -68.5q0 -39 -28 -67.5t-67 -28.5zM340 785q23 0 39.5 16.5t16.5 39.5q0 24 -16.5 41t-39.5 17q-24 0 -40.5 -17t-16.5 -41q0 -23 16.5 -39.5t40.5 -16.5zM103 0l-63 1l267 699h63l269 -700h-63 l-75 201h-324zM198 259h283l-142 380z" glyph-name="Aring" horiz-adv-x="679" unicode="Å"/><glyph d="M817 647h-372v-266h351v-53h-351v-275h372v-53h-429v206h-207l-78 -206l-63 1l267 699h510v-53zM198 259h190v388h-47z" glyph-name="AE" horiz-adv-x="867" unicode="Æ"/><glyph d="M373 52q84 0 147 47.5t79 120.5h56q-17 -100 -95 -163t-189 -63h-10l-19 -42q15 3 28 3q43 0 71.5 -26t28.5 -67q0 -42 -29 -71t-71 -29q-32 0 -65 17t-49 42l32 16q13 -16 36.5 -27.5t45.5 -11.5q27 0 45 18.5t18 45.5q0 28 -18 44t-47 16q-18 0 -42 -8l-31 22l30 61 q-119 17 -192 111.5t-73 237.5q0 161 88.5 260t226.5 99q110 0 187 -63t93 -160h-56q-18 73 -79 121t-143 48q-112 0 -184 -85t-72 -222q0 -131 70.5 -211.5t181.5 -80.5z" glyph-name="Ccedilla" horiz-adv-x="710" unicode="Ç"/><glyph d="M304 761l-115 117h69l105 -117h-59zM95 0v700h429v-53h-372v-266h351v-53h-351v-275h372v-53h-429z" glyph-name="Egrave" horiz-adv-x="574" unicode="È"/><glyph d="M334 759h-59l105 117h69zM95 0v700h429v-53h-372v-266h351v-53h-351v-275h372v-53h-429z" glyph-name="Eacute" horiz-adv-x="574" unicode="É"/><glyph d="M272 852h71l100 -100h-67l-68 67l-67 -67h-69zM95 0v700h429v-53h-372v-266h351v-53h-351v-275h372v-53h-429z" glyph-name="Ecircumflex" horiz-adv-x="574" unicode="Ê"/><glyph d="M189 754v85h81v-85h-81zM341 754v85h81v-85h-81zM95 0v700h429v-53h-372v-266h351v-53h-351v-275h372v-53h-429z" glyph-name="Edieresis" horiz-adv-x="574" unicode="Ë"/><glyph d="M124 761l-115 117h69l105 -117h-59zM100 0v700h55v-700h-55z" glyph-name="Igrave" horiz-adv-x="255" unicode="Ì"/><glyph d="M154 759h-59l105 117h69zM100 0v700h55v-700h-55z" glyph-name="Iacute" horiz-adv-x="255" unicode="Í"/><glyph d="M92 852h71l100 -100h-67l-68 67l-67 -67h-69zM100 0v700h55v-700h-55z" glyph-name="Icircumflex" horiz-adv-x="253" unicode="Î"/><glyph d="M9 754v85h81v-85h-81zM161 754v85h81v-85h-81zM100 0v700h55v-700h-55z" glyph-name="Idieresis" horiz-adv-x="246" unicode="Ï"/><glyph d="M378 702q144 0 228.5 -95t84.5 -252q0 -161 -81.5 -258t-221.5 -97l-267 -2v329h-26v51h26v322zM372 55q122 0 193 80.5t71 215.5t-69.5 215.5t-189.5 79.5l-199 -2v-266h93v-51h-93v-274z" glyph-name="Eth" horiz-adv-x="751" unicode="Ð"/><glyph d="M430 748q-57 0 -90 53q-20 33 -52 33q-22 0 -36 -17t-14 -45q0 -10 1 -15h-44q-1 5 -1 16q0 46 26 75t66 29q56 0 90 -53q20 -33 53 -33q23 0 36.5 17.5t13.5 45.5q0 2 -0.5 6.5t-0.5 6.5h43q1 -6 1 -18q0 -44 -25.5 -72.5t-66.5 -28.5zM555 -1l-405 617v-616h-55v700h65 l405 -617v616h55v-700h-65z" glyph-name="Ntilde" horiz-adv-x="715" unicode="Ñ"/><glyph d="M378 761l-115 117h69l105 -117h-59zM382 -10q-138 0 -230 105t-92 255q0 154 90 256t232 102t232 -103t90 -257q0 -150 -91.5 -254t-230.5 -104zM380 46q118 0 193.5 86t75.5 212q0 132 -74.5 220.5t-192.5 88.5t-191.5 -88t-73.5 -219q0 -126 74 -213t189 -87z" glyph-name="Ograve" horiz-adv-x="764" unicode="Ò"/><glyph d="M408 759h-59l105 117h69zM382 -10q-138 0 -230 105t-92 255q0 154 90 256t232 102t232 -103t90 -257q0 -150 -91.5 -254t-230.5 -104zM380 46q118 0 193.5 86t75.5 212q0 132 -74.5 220.5t-192.5 88.5t-191.5 -88t-73.5 -219q0 -126 74 -213t189 -87z" glyph-name="Oacute" horiz-adv-x="764" unicode="Ó"/><glyph d="M346 852h71l100 -100h-67l-68 67l-67 -67h-69zM382 -10q-138 0 -230 105t-92 255q0 154 90 256t232 102t232 -103t90 -257q0 -150 -91.5 -254t-230.5 -104zM380 46q118 0 193.5 86t75.5 212q0 132 -74.5 220.5t-192.5 88.5t-191.5 -88t-73.5 -219q0 -126 74 -213t189 -87 z" glyph-name="Ocircumflex" horiz-adv-x="764" unicode="Ô"/><glyph d="M454 748q-57 0 -90 53q-20 33 -52 33q-22 0 -36 -17t-14 -45q0 -10 1 -15h-44q-1 5 -1 16q0 46 26 75t66 29q56 0 90 -53q20 -33 53 -33q23 0 36.5 17.5t13.5 45.5q0 2 -0.5 6.5t-0.5 6.5h43q1 -6 1 -18q0 -44 -25.5 -72.5t-66.5 -28.5zM382 -10q-138 0 -230 105t-92 255 q0 154 90 256t232 102t232 -103t90 -257q0 -150 -91.5 -254t-230.5 -104zM380 46q118 0 193.5 86t75.5 212q0 132 -74.5 220.5t-192.5 88.5t-191.5 -88t-73.5 -219q0 -126 74 -213t189 -87z" glyph-name="Otilde" horiz-adv-x="764" unicode="Õ"/><glyph d="M263 754v85h81v-85h-81zM415 754v85h81v-85h-81zM382 -10q-138 0 -230 105t-92 255q0 154 90 256t232 102t232 -103t90 -257q0 -150 -91.5 -254t-230.5 -104zM380 46q118 0 193.5 86t75.5 212q0 132 -74.5 220.5t-192.5 88.5t-191.5 -88t-73.5 -219q0 -126 74 -213 t189 -87z" glyph-name="Odieresis" horiz-adv-x="764" unicode="Ö"/><glyph d="M179 73l-37 37l200 200l-200 201l37 37l200 -201l201 201l37 -37l-201 -201l201 -200l-37 -37l-201 200z" glyph-name="multiply" horiz-adv-x="731" unicode="×"/><glyph d="M615 604q89 -101 89 -256q0 -150 -91.5 -254t-230.5 -104q-123 0 -212 86l-65 -76h-56l92 108q-81 103 -81 242q0 154 90 256t232 102q120 0 203 -74l56 66h56zM117 346q0 -113 60 -195l372 440q-70 62 -167 62q-118 0 -191.5 -88t-73.5 -219zM380 46q118 0 193.5 86 t75.5 212q0 128 -70 216l-374 -442q72 -72 175 -72z" glyph-name="Oslash" horiz-adv-x="772" unicode="Ø"/><glyph d="M341 761l-115 117h69l105 -117h-59zM345 -8q-118 0 -189 70t-71 191v447h56v-447q0 -96 55.5 -151.5t148.5 -55.5t148.5 55.5t55.5 151.5v447h56v-447q0 -121 -71 -191t-189 -70z" glyph-name="Ugrave" horiz-adv-x="690" unicode="Ù"/><glyph d="M371 759h-59l105 117h69zM345 -8q-118 0 -189 70t-71 191v447h56v-447q0 -96 55.5 -151.5t148.5 -55.5t148.5 55.5t55.5 151.5v447h56v-447q0 -121 -71 -191t-189 -70z" glyph-name="Uacute" horiz-adv-x="690" unicode="Ú"/><glyph d="M309 852h71l100 -100h-67l-68 67l-67 -67h-69zM345 -8q-118 0 -189 70t-71 191v447h56v-447q0 -96 55.5 -151.5t148.5 -55.5t148.5 55.5t55.5 151.5v447h56v-447q0 -121 -71 -191t-189 -70z" glyph-name="Ucircumflex" horiz-adv-x="690" unicode="Û"/><glyph d="M226 754v85h81v-85h-81zM378 754v85h81v-85h-81zM345 -8q-118 0 -189 70t-71 191v447h56v-447q0 -96 55.5 -151.5t148.5 -55.5t148.5 55.5t55.5 151.5v447h56v-447q0 -121 -71 -191t-189 -70z" glyph-name="Udieresis" horiz-adv-x="690" unicode="Ü"/><glyph d="M338 759h-59l105 117h69zM283 0v292l-253 408h61l221 -359l221 359h61l-253 -408v-292h-58z" glyph-name="Yacute" horiz-adv-x="624" unicode="Ý"/><glyph d="M95 -1v701h55v-139l212 1q92 -1 148.5 -57t56.5 -147q0 -90 -58 -145t-153 -55h-206v-159h-55zM150 210h212q69 0 111 40.5t42 107.5q0 69 -42 111t-111 42h-211z" glyph-name="Thorn" horiz-adv-x="607" unicode="Þ"/><glyph d="M228 -10l-1 51h104q73 0 119.5 39.5t46.5 101.5q0 64 -52 107.5t-145 43.5h-17v47h14q86 0 136.5 43.5t50.5 105.5q0 60 -47 92.5t-112 32.5q-80 0 -127 -45.5t-47 -122.5v-494h-56v494q0 101 63.5 160.5t172.5 59.5q93 0 153 -47t60 -127q0 -61 -36.5 -106.5 t-96.5 -63.5q70 -15 109 -63t39 -112q0 -86 -64 -141.5t-164 -55.5h-103z" glyph-name="germandbls" horiz-adv-x="614" unicode="ß"/><glyph d="M260 561l-115 117h69l105 -117h-59zM219 -10q-70 0 -119.5 41t-49.5 110q0 68 49 108q46 36 133 44q33 3 54.5 6.5t50.5 11.5t44.5 23t15.5 36q0 45 -37 69.5t-91 24.5q-60 0 -98 -28.5t-45 -79.5l-57 -1q8 72 61.5 114.5t137.5 42.5q86 0 135 -45t49 -119v-348h-55v78 q-67 -88 -178 -88zM224 44q65 0 119 42t54 122v81q-31 -34 -148 -44q-142 -13 -142 -103q0 -47 35.5 -72.5t81.5 -25.5z" glyph-name="agrave" horiz-adv-x="527" unicode="à"/><glyph d="M290 559h-59l105 117h69zM219 -10q-70 0 -119.5 41t-49.5 110q0 68 49 108q46 36 133 44q33 3 54.5 6.5t50.5 11.5t44.5 23t15.5 36q0 45 -37 69.5t-91 24.5q-60 0 -98 -28.5t-45 -79.5l-57 -1q8 72 61.5 114.5t137.5 42.5q86 0 135 -45t49 -119v-348h-55v78 q-67 -88 -178 -88zM224 44q65 0 119 42t54 122v81q-31 -34 -148 -44q-142 -13 -142 -103q0 -47 35.5 -72.5t81.5 -25.5z" glyph-name="aacute" horiz-adv-x="527" unicode="á"/><glyph d="M228 652h71l100 -100h-67l-68 67l-67 -67h-69zM219 -10q-70 0 -119.5 41t-49.5 110q0 68 49 108q46 36 133 44q33 3 54.5 6.5t50.5 11.5t44.5 23t15.5 36q0 45 -37 69.5t-91 24.5q-60 0 -98 -28.5t-45 -79.5l-57 -1q8 72 61.5 114.5t137.5 42.5q86 0 135 -45t49 -119 v-348h-55v78q-67 -88 -178 -88zM224 44q65 0 119 42t54 122v81q-31 -34 -148 -44q-142 -13 -142 -103q0 -47 35.5 -72.5t81.5 -25.5z" glyph-name="acircumflex" horiz-adv-x="527" unicode="â"/><glyph d="M336 548q-57 0 -90 53q-20 33 -52 33q-22 0 -36 -17t-14 -45q0 -10 1 -15h-44q-1 5 -1 16q0 46 26 75t66 29q56 0 90 -53q20 -33 53 -33q23 0 36.5 17.5t13.5 45.5q0 2 -0.5 6.5t-0.5 6.5h43q1 -6 1 -18q0 -44 -25.5 -72.5t-66.5 -28.5zM219 -10q-70 0 -119.5 41 t-49.5 110q0 68 49 108q46 36 133 44q33 3 54.5 6.5t50.5 11.5t44.5 23t15.5 36q0 45 -37 69.5t-91 24.5q-60 0 -98 -28.5t-45 -79.5l-57 -1q8 72 61.5 114.5t137.5 42.5q86 0 135 -45t49 -119v-348h-55v78q-67 -88 -178 -88zM224 44q65 0 119 42t54 122v81 q-31 -34 -148 -44q-142 -13 -142 -103q0 -47 35.5 -72.5t81.5 -25.5z" glyph-name="atilde" horiz-adv-x="527" unicode="ã"/><glyph d="M145 554v85h81v-85h-81zM297 554v85h81v-85h-81zM219 -10q-70 0 -119.5 41t-49.5 110q0 68 49 108q46 36 133 44q33 3 54.5 6.5t50.5 11.5t44.5 23t15.5 36q0 45 -37 69.5t-91 24.5q-60 0 -98 -28.5t-45 -79.5l-57 -1q8 72 61.5 114.5t137.5 42.5q86 0 135 -45t49 -119 v-348h-55v78q-67 -88 -178 -88zM224 44q65 0 119 42t54 122v81q-31 -34 -148 -44q-142 -13 -142 -103q0 -47 35.5 -72.5t81.5 -25.5z" glyph-name="adieresis" horiz-adv-x="527" unicode="ä"/><glyph d="M264 545q-40 0 -69 28.5t-29 67.5q0 40 29 68.5t69 28.5q39 0 67 -28.5t28 -68.5q0 -39 -28 -67.5t-67 -28.5zM264 585q23 0 39.5 16.5t16.5 39.5q0 24 -16.5 41t-39.5 17q-24 0 -40.5 -17t-16.5 -41q0 -23 16.5 -39.5t40.5 -16.5zM219 -10q-70 0 -119.5 41t-49.5 110 q0 68 49 108q46 36 133 44q33 3 54.5 6.5t50.5 11.5t44.5 23t15.5 36q0 45 -37 69.5t-91 24.5q-60 0 -98 -28.5t-45 -79.5l-57 -1q8 72 61.5 114.5t137.5 42.5q86 0 135 -45t49 -119v-348h-55v78q-67 -88 -178 -88zM224 44q65 0 119 42t54 122v81q-31 -34 -148 -44 q-142 -13 -142 -103q0 -47 35.5 -72.5t81.5 -25.5z" glyph-name="aring" horiz-adv-x="527" unicode="å"/><glyph d="M635 42q56 0 99.5 34t54.5 85h53q-10 -75 -68.5 -123.5t-141.5 -48.5q-67 0 -119 33t-80 93q-16 -44 -77 -84.5t-140 -40.5q-69 0 -117.5 41t-48.5 110q0 68 49 108q46 36 133 44q33 3 54.5 6.5t50.5 11.5t44.5 23t15.5 36q0 45 -37 69.5t-91 24.5q-60 0 -98 -28.5 t-45 -79.5l-57 -1q8 72 61.5 114.5t137.5 42.5q69 0 114.5 -29.5t61.5 -80.5q61 104 189 104q100 0 158 -73.5t59 -192.5h-385v-1q0 -90 45.5 -143.5t124.5 -53.5zM631 454q-73 0 -113 -44t-50 -119h321q-10 78 -46.5 120.5t-111.5 42.5zM397 208v81q-31 -34 -148 -44 q-142 -11 -142 -103q0 -47 35.5 -72.5t81.5 -25.5q65 0 119 42t54 122z" glyph-name="ae" horiz-adv-x="900" unicode="æ"/><glyph d="M273 46q55 0 97.5 34t51.5 85h52q-10 -75 -67 -123.5t-137 -48.5h-3l-18 -40q15 3 28 3q43 0 71.5 -26t28.5 -67q0 -42 -29 -71t-71 -29q-32 0 -65 17t-49 42l32 16q13 -16 36.5 -27.5t45.5 -11.5q27 0 45 18.5t18 45.5q0 28 -18 44t-47 16q-18 0 -42 -8l-31 22l29 59 q-80 15 -130.5 83.5t-50.5 170.5q0 117 62.5 188.5t161.5 71.5q78 0 134 -47.5t66 -121.5h-52q-10 52 -52 85t-94 33q-76 0 -122 -58.5t-46 -153.5q0 -90 45.5 -145.5t119.5 -55.5z" glyph-name="ccedilla" horiz-adv-x="524" unicode="ç"/><glyph d="M268 561l-115 117h69l105 -117h-59zM276 -11q-100 0 -163 70.5t-63 186.5t61 188t166 72q100 0 158 -73.5t59 -192.5h-385v-1q0 -90 45.5 -143.5t124.5 -53.5q56 0 99.5 34t54.5 85h53q-10 -75 -68.5 -123.5t-141.5 -48.5zM112 291h321q-10 78 -46.5 120.5t-111.5 42.5 q-73 0 -113 -44t-50 -119z" glyph-name="egrave" horiz-adv-x="544" unicode="è"/><glyph d="M298 559h-59l105 117h69zM276 -11q-100 0 -163 70.5t-63 186.5t61 188t166 72q100 0 158 -73.5t59 -192.5h-385v-1q0 -90 45.5 -143.5t124.5 -53.5q56 0 99.5 34t54.5 85h53q-10 -75 -68.5 -123.5t-141.5 -48.5zM112 291h321q-10 78 -46.5 120.5t-111.5 42.5 q-73 0 -113 -44t-50 -119z" glyph-name="eacute" horiz-adv-x="544" unicode="é"/><glyph d="M236 652h71l100 -100h-67l-68 67l-67 -67h-69zM276 -11q-100 0 -163 70.5t-63 186.5t61 188t166 72q100 0 158 -73.5t59 -192.5h-385v-1q0 -90 45.5 -143.5t124.5 -53.5q56 0 99.5 34t54.5 85h53q-10 -75 -68.5 -123.5t-141.5 -48.5zM112 291h321q-10 78 -46.5 120.5 t-111.5 42.5q-73 0 -113 -44t-50 -119z" glyph-name="ecircumflex" horiz-adv-x="544" unicode="ê"/><glyph d="M153 554v85h81v-85h-81zM305 554v85h81v-85h-81zM276 -11q-100 0 -163 70.5t-63 186.5t61 188t166 72q100 0 158 -73.5t59 -192.5h-385v-1q0 -90 45.5 -143.5t124.5 -53.5q56 0 99.5 34t54.5 85h53q-10 -75 -68.5 -123.5t-141.5 -48.5zM112 291h321q-10 78 -46.5 120.5 t-111.5 42.5q-73 0 -113 -44t-50 -119z" glyph-name="edieresis" horiz-adv-x="544" unicode="ë"/><glyph d="M117 561l-115 117h69l105 -117h-59zM93 0v500h55v-500h-55z" glyph-name="igrave" horiz-adv-x="218" unicode="ì"/><glyph d="M124 559h-59l105 117h69zM70 0v500h55v-500h-55z" glyph-name="iacute" horiz-adv-x="230" unicode="í"/><glyph d="M72 652h71l100 -100h-67l-68 67l-67 -67h-69zM80 0v500h55v-500h-55z" glyph-name="icircumflex" horiz-adv-x="222" unicode="î"/><glyph d="M-15 554v85h81v-85h-81zM137 554v85h81v-85h-81zM76 0v500h55v-500h-55z" glyph-name="idieresis" horiz-adv-x="208" unicode="ï"/><glyph d="M570 606v-45h-67v-561h-55v87q-24 -44 -72 -71t-102 -27q-98 0 -161 73t-63 185q0 113 62 185.5t159 72.5q56 0 105 -27.5t72 -72.5v156h-105v45h105v94h55v-94h67zM275 43q80 0 128.5 55.5t48.5 143.5q0 92 -48.5 151t-128.5 59q-76 0 -121 -57t-45 -148q0 -90 45 -147 t121 -57z" glyph-name="eth" horiz-adv-x="655" unicode="ð"/><glyph d="M354 548q-57 0 -90 53q-20 33 -52 33q-22 0 -36 -17t-14 -45q0 -10 1 -15h-44q-1 5 -1 16q0 46 26 75t66 29q56 0 90 -53q20 -33 53 -33q23 0 36.5 17.5t13.5 45.5q0 2 -0.5 6.5t-0.5 6.5h43q1 -6 1 -18q0 -44 -25.5 -72.5t-66.5 -28.5zM85 0v500h55v-72q21 36 64 60.5 t96 24.5q85 0 134.5 -57t49.5 -149v-307h-55v307q0 70 -37 113.5t-96 43.5q-67 0 -111 -50t-45 -133v-281h-55z" glyph-name="ntilde" unicode="ñ"/><glyph d="M278 561l-115 117h69l105 -117h-59zM282 -5q-102 0 -167 71.5t-65 183.5q0 113 65 185t167 72q107 0 169 -71t62 -186q0 -112 -65 -183.5t-166 -71.5zM280 47q79 0 129 56.5t50 144.5q0 93 -46.5 150t-130.5 57q-77 0 -126.5 -57.5t-49.5 -147.5q0 -89 49 -146t125 -57z " glyph-name="ograve" horiz-adv-x="563" unicode="ò"/><glyph d="M308 559h-59l105 117h69zM282 -5q-102 0 -167 71.5t-65 183.5q0 113 65 185t167 72q107 0 169 -71t62 -186q0 -112 -65 -183.5t-166 -71.5zM280 47q79 0 129 56.5t50 144.5q0 93 -46.5 150t-130.5 57q-77 0 -126.5 -57.5t-49.5 -147.5q0 -89 49 -146t125 -57z" glyph-name="oacute" horiz-adv-x="563" unicode="ó"/><glyph d="M246 652h71l100 -100h-67l-68 67l-67 -67h-69zM282 -5q-102 0 -167 71.5t-65 183.5q0 113 65 185t167 72q107 0 169 -71t62 -186q0 -112 -65 -183.5t-166 -71.5zM280 47q79 0 129 56.5t50 144.5q0 93 -46.5 150t-130.5 57q-77 0 -126.5 -57.5t-49.5 -147.5q0 -89 49 -146 t125 -57z" glyph-name="ocircumflex" horiz-adv-x="563" unicode="ô"/><glyph d="M354 548q-57 0 -90 53q-20 33 -52 33q-22 0 -36 -17t-14 -45q0 -10 1 -15h-44q-1 5 -1 16q0 46 26 75t66 29q56 0 90 -53q20 -33 53 -33q23 0 36.5 17.5t13.5 45.5q0 2 -0.5 6.5t-0.5 6.5h43q1 -6 1 -18q0 -44 -25.5 -72.5t-66.5 -28.5zM282 -5q-102 0 -167 71.5 t-65 183.5q0 113 65 185t167 72q107 0 169 -71t62 -186q0 -112 -65 -183.5t-166 -71.5zM280 47q79 0 129 56.5t50 144.5q0 93 -46.5 150t-130.5 57q-77 0 -126.5 -57.5t-49.5 -147.5q0 -89 49 -146t125 -57z" glyph-name="otilde" horiz-adv-x="563" unicode="õ"/><glyph d="M163 554v85h81v-85h-81zM315 554v85h81v-85h-81zM282 -5q-102 0 -167 71.5t-65 183.5q0 113 65 185t167 72q107 0 169 -71t62 -186q0 -112 -65 -183.5t-166 -71.5zM280 47q79 0 129 56.5t50 144.5q0 93 -46.5 150t-130.5 57q-77 0 -126.5 -57.5t-49.5 -147.5 q0 -89 49 -146t125 -57z" glyph-name="odieresis" horiz-adv-x="563" unicode="ö"/><glyph d="M323 415v85h81v-85h-81zM120 264v47h491v-47h-491zM323 72v85h81v-85h-81z" glyph-name="divide" horiz-adv-x="727" unicode="÷"/><glyph d="M527 500l-67 -75q53 -69 53 -175q0 -112 -65 -183.5t-166 -71.5q-93 0 -156 60l-49 -55h-50l75 83q-52 69 -52 167q0 113 65 185t167 72q92 0 152 -54l43 47h50zM106 250q0 -73 33 -125l259 288q-45 42 -116 42q-77 0 -126.5 -57.5t-49.5 -147.5zM459 248q0 84 -36 136 l-260 -289q48 -48 117 -48q79 0 129 56.5t50 144.5z" glyph-name="oslash" horiz-adv-x="575" unicode="ø"/><glyph d="M278 561l-115 117h69l105 -117h-59zM264 -13q-85 0 -134.5 57t-49.5 149v307h55v-307q1 -65 38 -111t95 -46q73 0 114 49t42 134v281h55v-500h-55v72q-21 -36 -64 -60.5t-96 -24.5z" glyph-name="ugrave" unicode="ù"/><glyph d="M308 559h-59l105 117h69zM264 -13q-85 0 -134.5 57t-49.5 149v307h55v-307q1 -65 38 -111t95 -46q73 0 114 49t42 134v281h55v-500h-55v72q-21 -36 -64 -60.5t-96 -24.5z" glyph-name="uacute" unicode="ú"/><glyph d="M246 652h71l100 -100h-67l-68 67l-67 -67h-69zM264 -13q-85 0 -134.5 57t-49.5 149v307h55v-307q1 -65 38 -111t95 -46q73 0 114 49t42 134v281h55v-500h-55v72q-21 -36 -64 -60.5t-96 -24.5z" glyph-name="ucircumflex" unicode="û"/><glyph d="M163 554v85h81v-85h-81zM315 554v85h81v-85h-81zM264 -13q-85 0 -134.5 57t-49.5 149v307h55v-307q1 -65 38 -111t95 -46q73 0 114 49t42 134v281h55v-500h-55v72q-21 -36 -64 -60.5t-96 -24.5z" glyph-name="udieresis" unicode="ü"/><glyph d="M271 559h-59l105 117h69zM45 -200v53h28q75 0 104 72l40 104l-197 471h65l160 -398l160 398h64l-234 -582q-22 -58 -57.5 -87.5t-104.5 -30.5h-28z" glyph-name="yacute" horiz-adv-x="489" unicode="ý"/><glyph d="M59 -159v832h55v-260q24 44 72 71t102 27q98 0 161 -73t63 -185q0 -113 -62 -185.5t-159 -72.5q-56 0 -105 27.5t-72 72.5v-254h-55zM287 48q76 0 121 57t45 148q0 90 -45 147t-121 57q-80 0 -128.5 -55.5t-48.5 -143.5q0 -92 48.5 -151t128.5 -59z" glyph-name="thorn" horiz-adv-x="550" unicode="þ"/><glyph d="M126 554v85h81v-85h-81zM278 554v85h81v-85h-81zM45 -200v53h28q75 0 104 72l40 104l-197 471h65l160 -398l160 398h64l-234 -582q-22 -58 -57.5 -87.5t-104.5 -30.5h-28z" glyph-name="ydieresis" horiz-adv-x="489" unicode="ÿ"/><glyph d="M188 776v46h310v-46h-310zM103 0l-63 1l267 699h63l269 -700h-63l-75 201h-324zM198 259h283l-142 380z" glyph-name="Amacron" horiz-adv-x="679" unicode="Ā"/><glyph d="M112 576v46h310v-46h-310zM219 -10q-70 0 -119.5 41t-49.5 110q0 68 49 108q46 36 133 44q33 3 54.5 6.5t50.5 11.5t44.5 23t15.5 36q0 45 -37 69.5t-91 24.5q-60 0 -98 -28.5t-45 -79.5l-57 -1q8 72 61.5 114.5t137.5 42.5q86 0 135 -45t49 -119v-348h-55v78 q-67 -88 -178 -88zM224 44q65 0 119 42t54 122v81q-31 -34 -148 -44q-142 -13 -142 -103q0 -47 35.5 -72.5t81.5 -25.5z" glyph-name="amacron" horiz-adv-x="527" unicode="ā"/><glyph d="M340 755q-70 0 -115.5 41t-45.5 108h43q0 -46 31 -77.5t87 -31.5q57 0 88.5 31.5t31.5 77.5h42q0 -67 -45.5 -108t-116.5 -41zM103 0l-63 1l267 699h63l269 -700h-63l-75 201h-324zM198 259h283l-142 380z" glyph-name="Abreve" horiz-adv-x="679" unicode="Ă"/><glyph d="M264 555q-70 0 -115.5 41t-45.5 108h43q0 -46 31 -77.5t87 -31.5q57 0 88.5 31.5t31.5 77.5h42q0 -67 -45.5 -108t-116.5 -41zM219 -10q-70 0 -119.5 41t-49.5 110q0 68 49 108q46 36 133 44q33 3 54.5 6.5t50.5 11.5t44.5 23t15.5 36q0 45 -37 69.5t-91 24.5 q-60 0 -98 -28.5t-45 -79.5l-57 -1q8 72 61.5 114.5t137.5 42.5q86 0 135 -45t49 -119v-348h-55v78q-67 -88 -178 -88zM224 44q65 0 119 42t54 122v81q-31 -34 -148 -44q-142 -13 -142 -103q0 -47 35.5 -72.5t81.5 -25.5z" glyph-name="abreve" horiz-adv-x="527" unicode="ă"/><glyph d="M682 -178l23 -33q-50 -49 -125 -49q-50 0 -80 27.5t-30 74.5q0 87 110 158h-4l-75 201h-324l-74 -201l-63 1l267 699h63l269 -699l4 -1q-48 -21 -87 -63t-39 -89q0 -31 18 -50t51 -19q58 0 96 43zM198 259h283l-142 380z" glyph-name="Aogonek" horiz-adv-x="600" unicode="Ą"/><glyph d="M492 -178l23 -33q-50 -49 -125 -49q-50 0 -80 27.5t-30 74.5q0 85 117 159v77q-67 -88 -178 -88q-70 0 -119.5 41t-49.5 110q0 68 49 108q46 36 133 44q33 3 54.5 6.5t50.5 11.5t44.5 23t15.5 36q0 45 -37 69.5t-91 24.5q-60 0 -98 -28.5t-45 -79.5l-57 -1 q8 72 61.5 114.5t137.5 42.5q86 0 135 -45t49 -119v-348q-48 -21 -86.5 -62.5t-38.5 -89.5q0 -31 18 -50t51 -19q58 0 96 43zM224 44q65 0 119 42t54 122v81q-31 -34 -148 -44q-142 -13 -142 -103q0 -47 35.5 -72.5t81.5 -25.5z" glyph-name="aogonek" horiz-adv-x="527" unicode="ą"/><glyph d="M381 759h-59l105 117h69zM371 -6q-137 0 -224 97.5t-87 254.5q0 161 88.5 260t226.5 99q110 0 187 -63t93 -160h-56q-18 73 -79 121t-143 48q-112 0 -184 -85t-72 -222q0 -131 70.5 -211.5t181.5 -80.5q84 0 147 47.5t79 120.5h56q-17 -100 -95 -163t-189 -63z" glyph-name="Cacute" horiz-adv-x="710" unicode="Ć"/><glyph d="M288 559h-59l105 117h69zM270 -7q-95 0 -157.5 71.5t-62.5 185.5q0 117 62.5 188.5t161.5 71.5q78 0 134 -47.5t66 -121.5h-52q-10 52 -52 85t-94 33q-76 0 -122 -58.5t-46 -153.5q0 -90 45.5 -145.5t119.5 -55.5q55 0 97.5 34t51.5 85h52q-10 -75 -67 -123.5t-137 -48.5 z" glyph-name="cacute" horiz-adv-x="524" unicode="ć"/><glyph d="M319 852h71l100 -100h-67l-68 67l-67 -67h-69zM371 -6q-137 0 -224 97.5t-87 254.5q0 161 88.5 260t226.5 99q110 0 187 -63t93 -160h-56q-18 73 -79 121t-143 48q-112 0 -184 -85t-72 -222q0 -131 70.5 -211.5t181.5 -80.5q84 0 147 47.5t79 120.5h56q-17 -100 -95 -163 t-189 -63z" glyph-name="Ccircumflex" horiz-adv-x="710" unicode="Ĉ"/><glyph d="M226 652h71l100 -100h-67l-68 67l-67 -67h-69zM270 -7q-95 0 -157.5 71.5t-62.5 185.5q0 117 62.5 188.5t161.5 71.5q78 0 134 -47.5t66 -121.5h-52q-10 52 -52 85t-94 33q-76 0 -122 -58.5t-46 -153.5q0 -90 45.5 -145.5t119.5 -55.5q55 0 97.5 34t51.5 85h52 q-10 -75 -67 -123.5t-137 -48.5z" glyph-name="ccircumflex" horiz-adv-x="524" unicode="ĉ"/><glyph d="M312 767v85h81v-85h-81zM371 -6q-137 0 -224 97.5t-87 254.5q0 161 88.5 260t226.5 99q110 0 187 -63t93 -160h-56q-18 73 -79 121t-143 48q-112 0 -184 -85t-72 -222q0 -131 70.5 -211.5t181.5 -80.5q84 0 147 47.5t79 120.5h56q-17 -100 -95 -163t-189 -63z" glyph-name="Cdotaccent" horiz-adv-x="710" unicode="Ċ"/><glyph d="M219 567v85h81v-85h-81zM270 -7q-95 0 -157.5 71.5t-62.5 185.5q0 117 62.5 188.5t161.5 71.5q78 0 134 -47.5t66 -121.5h-52q-10 52 -52 85t-94 33q-76 0 -122 -58.5t-46 -153.5q0 -90 45.5 -145.5t119.5 -55.5q55 0 97.5 34t51.5 85h52q-10 -75 -67 -123.5t-137 -48.5z " glyph-name="cdotaccent" horiz-adv-x="524" unicode="ċ"/><glyph d="M216 846h69l67 -67l68 67h67l-100 -100h-71zM371 -6q-137 0 -224 97.5t-87 254.5q0 161 88.5 260t226.5 99q110 0 187 -63t93 -160h-56q-18 73 -79 121t-143 48q-112 0 -184 -85t-72 -222q0 -131 70.5 -211.5t181.5 -80.5q84 0 147 47.5t79 120.5h56q-17 -100 -95 -163 t-189 -63z" glyph-name="Ccaron" horiz-adv-x="710" unicode="Č"/><glyph d="M123 646h69l67 -67l68 67h67l-100 -100h-71zM270 -7q-95 0 -157.5 71.5t-62.5 185.5q0 117 62.5 188.5t161.5 71.5q78 0 134 -47.5t66 -121.5h-52q-10 52 -52 85t-94 33q-76 0 -122 -58.5t-46 -153.5q0 -90 45.5 -145.5t119.5 -55.5q55 0 97.5 34t51.5 85h52 q-10 -75 -67 -123.5t-137 -48.5z" glyph-name="ccaron" horiz-adv-x="524" unicode="č"/><glyph d="M224 846h69l67 -67l68 67h67l-100 -100h-71zM95 -2v702l257 2q144 0 228.5 -95t84.5 -252q0 -161 -81.5 -258t-221.5 -97zM152 53l194 2q122 0 193 80.5t71 215.5t-69.5 215.5t-189.5 79.5l-199 -2v-591z" glyph-name="Dcaron" horiz-adv-x="725" unicode="Ď"/><glyph d="M274 -11q-98 0 -161 73t-63 185q0 113 62 185.5t159 72.5q56 0 105 -27.5t72 -72.5v295h55v-700h-55v87q-24 -44 -72 -71t-102 -27zM124 700h69l67 -67l68 67h67l-100 -100h-71zM275 43q80 0 128.5 55.5t48.5 143.5q0 92 -48.5 151t-128.5 59q-76 0 -121 -57t-45 -148 q0 -90 45 -147t121 -57z" glyph-name="dcaron" horiz-adv-x="588" unicode="ď"/><glyph d="M393 702q144 0 228.5 -95t84.5 -252q0 -161 -81.5 -258t-221.5 -97l-267 -2v329h-56v51h56v322zM387 55q122 0 193 80.5t71 215.5t-69.5 215.5t-189.5 79.5l-199 -2v-266h172v-51h-172v-274z" glyph-name="Dcroat" horiz-adv-x="793" unicode="Đ"/><glyph d="M156 776v46h310v-46h-310zM95 0v700h429v-53h-372v-266h351v-53h-351v-275h372v-53h-429z" glyph-name="Emacron" horiz-adv-x="574" unicode="Ē"/><glyph d="M120 576v46h310v-46h-310zM276 -11q-100 0 -163 70.5t-63 186.5t61 188t166 72q100 0 158 -73.5t59 -192.5h-385v-1q0 -90 45.5 -143.5t124.5 -53.5q56 0 99.5 34t54.5 85h53q-10 -75 -68.5 -123.5t-141.5 -48.5zM112 291h321q-10 78 -46.5 120.5t-111.5 42.5 q-73 0 -113 -44t-50 -119z" glyph-name="emacron" horiz-adv-x="544" unicode="ē"/><glyph d="M308 755q-70 0 -115.5 41t-45.5 108h43q0 -46 31 -77.5t87 -31.5q57 0 88.5 31.5t31.5 77.5h42q0 -67 -45.5 -108t-116.5 -41zM95 0v700h429v-53h-372v-266h351v-53h-351v-275h372v-53h-429z" glyph-name="Ebreve" horiz-adv-x="574" unicode="Ĕ"/><glyph d="M272 555q-70 0 -115.5 41t-45.5 108h43q0 -46 31 -77.5t87 -31.5q57 0 88.5 31.5t31.5 77.5h42q0 -67 -45.5 -108t-116.5 -41zM276 -11q-100 0 -163 70.5t-63 186.5t61 188t166 72q100 0 158 -73.5t59 -192.5h-385v-1q0 -90 45.5 -143.5t124.5 -53.5q56 0 99.5 34 t54.5 85h53q-10 -75 -68.5 -123.5t-141.5 -48.5zM112 291h321q-10 78 -46.5 120.5t-111.5 42.5q-73 0 -113 -44t-50 -119z" glyph-name="ebreve" horiz-adv-x="544" unicode="ĕ"/><glyph d="M265 767v85h81v-85h-81zM95 0v700h429v-53h-372v-266h351v-53h-351v-275h372v-53h-429z" glyph-name="Edotaccent" horiz-adv-x="574" unicode="Ė"/><glyph d="M229 567v85h81v-85h-81zM276 -11q-100 0 -163 70.5t-63 186.5t61 188t166 72q100 0 158 -73.5t59 -192.5h-385v-1q0 -90 45.5 -143.5t124.5 -53.5q56 0 99.5 34t54.5 85h53q-10 -75 -68.5 -123.5t-141.5 -48.5zM112 291h321q-10 78 -46.5 120.5t-111.5 42.5 q-73 0 -113 -44t-50 -119z" glyph-name="edotaccent" horiz-adv-x="544" unicode="ė"/><glyph d="M563 -177l23 -33q-50 -49 -125 -49q-50 0 -80 27.5t-30 74.5q0 83 114 157h-370v700h429v-53h-372v-266h351v-53h-351v-275h372v-53h-3q-48 -22 -85.5 -63t-37.5 -88q0 -31 18 -50t51 -19q58 0 96 43z" glyph-name="Eogonek" horiz-adv-x="574" unicode="Ę"/><glyph d="M279 42q56 0 99.5 34t54.5 85h53q-9 -68 -60 -115.5t-124 -55.5h1q-48 -21 -86.5 -62.5t-38.5 -89.5q0 -31 18 -50t51 -19q58 0 96 43l23 -33q-50 -49 -125 -49q-50 0 -80 27.5t-30 74.5q0 84 116 159q-89 10 -143 79t-54 176q0 116 61 188t166 72q100 0 158 -73.5 t59 -192.5h-385v-1q0 -90 45.5 -143.5t124.5 -53.5zM275 454q-73 0 -113 -44t-50 -119h321q-10 78 -46.5 120.5t-111.5 42.5z" glyph-name="eogonek" horiz-adv-x="544" unicode="ę"/><glyph d="M169 846h69l67 -67l68 67h67l-100 -100h-71zM95 0v700h429v-53h-372v-266h351v-53h-351v-275h372v-53h-429z" glyph-name="Ecaron" horiz-adv-x="574" unicode="Ě"/><glyph d="M133 646h69l67 -67l68 67h67l-100 -100h-71zM276 -11q-100 0 -163 70.5t-63 186.5t61 188t166 72q100 0 158 -73.5t59 -192.5h-385v-1q0 -90 45.5 -143.5t124.5 -53.5q56 0 99.5 34t54.5 85h53q-10 -75 -68.5 -123.5t-141.5 -48.5zM112 291h321q-10 78 -46.5 120.5 t-111.5 42.5q-73 0 -113 -44t-50 -119z" glyph-name="ecaron" horiz-adv-x="544" unicode="ě"/><glyph d="M347 852h71l100 -100h-67l-68 67l-67 -67h-69zM379 -6q-136 0 -227.5 98.5t-91.5 253.5q0 160 92.5 260.5t231.5 100.5q107 0 189 -64t96 -161h-56q-12 73 -78 123t-149 50q-113 0 -190.5 -87.5t-77.5 -223.5q0 -129 76.5 -212t187.5 -83q37 0 76 14t75.5 42t61.5 76.5 t28 109.5h-219v57l271 -2v-346l-54 -1l1 135q-39 -69 -105.5 -104.5t-137.5 -35.5z" glyph-name="Gcircumflex" horiz-adv-x="765" unicode="Ĝ"/><glyph d="M250 661h71l100 -100h-67l-68 67l-67 -67h-69zM275 -206q-87 0 -144.5 46t-61.5 122h56q5 -57 48.5 -87t101.5 -30q80 0 126.5 46.5t46.5 137.5v66q-23 -45 -72 -72.5t-105 -27.5q-97 0 -159 72.5t-62 185.5q0 112 63 185t161 73q54 0 102 -27t72 -71v87h55v-471 q0 -116 -62.5 -175.5t-165.5 -59.5zM275 48q80 0 128.5 59t48.5 151q0 88 -48.5 143.5t-128.5 55.5q-76 0 -121 -57t-45 -147q0 -91 45 -148t121 -57z" glyph-name="gcircumflex" horiz-adv-x="583" unicode="ĝ"/><glyph d="M383 755q-70 0 -115.5 41t-45.5 108h43q0 -46 31 -77.5t87 -31.5q57 0 88.5 31.5t31.5 77.5h42q0 -67 -45.5 -108t-116.5 -41zM379 -6q-136 0 -227.5 98.5t-91.5 253.5q0 160 92.5 260.5t231.5 100.5q107 0 189 -64t96 -161h-56q-12 73 -78 123t-149 50 q-113 0 -190.5 -87.5t-77.5 -223.5q0 -129 76.5 -212t187.5 -83q37 0 76 14t75.5 42t61.5 76.5t28 109.5h-219v57l271 -2v-346l-54 -1l1 135q-39 -69 -105.5 -104.5t-137.5 -35.5z" glyph-name="Gbreve" horiz-adv-x="765" unicode="Ğ"/><glyph d="M286 564q-70 0 -115.5 41t-45.5 108h43q0 -46 31 -77.5t87 -31.5q57 0 88.5 31.5t31.5 77.5h42q0 -67 -45.5 -108t-116.5 -41zM275 -206q-87 0 -144.5 46t-61.5 122h56q5 -57 48.5 -87t101.5 -30q80 0 126.5 46.5t46.5 137.5v66q-23 -45 -72 -72.5t-105 -27.5 q-97 0 -159 72.5t-62 185.5q0 112 63 185t161 73q54 0 102 -27t72 -71v87h55v-471q0 -116 -62.5 -175.5t-165.5 -59.5zM275 48q80 0 128.5 59t48.5 151q0 88 -48.5 143.5t-128.5 55.5q-76 0 -121 -57t-45 -147q0 -91 45 -148t121 -57z" glyph-name="gbreve" horiz-adv-x="583" unicode="ğ"/><glyph d="M340 767v85h81v-85h-81zM379 -6q-136 0 -227.5 98.5t-91.5 253.5q0 160 92.5 260.5t231.5 100.5q107 0 189 -64t96 -161h-56q-12 73 -78 123t-149 50q-113 0 -190.5 -87.5t-77.5 -223.5q0 -129 76.5 -212t187.5 -83q37 0 76 14t75.5 42t61.5 76.5t28 109.5h-219v57 l271 -2v-346l-54 -1l1 135q-39 -69 -105.5 -104.5t-137.5 -35.5z" glyph-name="Gdotaccent" horiz-adv-x="765" unicode="Ġ"/><glyph d="M243 576v85h81v-85h-81zM275 -206q-87 0 -144.5 46t-61.5 122h56q5 -57 48.5 -87t101.5 -30q80 0 126.5 46.5t46.5 137.5v66q-23 -45 -72 -72.5t-105 -27.5q-97 0 -159 72.5t-62 185.5q0 112 63 185t161 73q54 0 102 -27t72 -71v87h55v-471q0 -116 -62.5 -175.5 t-165.5 -59.5zM275 48q80 0 128.5 59t48.5 151q0 88 -48.5 143.5t-128.5 55.5q-76 0 -121 -57t-45 -147q0 -91 45 -148t121 -57z" glyph-name="gdotaccent" horiz-adv-x="583" unicode="ġ"/><glyph d="M379 -6q-136 0 -227.5 98.5t-91.5 253.5q0 160 92.5 260.5t231.5 100.5q107 0 189 -64t96 -161h-56q-12 73 -78 123t-149 50q-113 0 -190.5 -87.5t-77.5 -223.5q0 -129 76.5 -212t187.5 -83q37 0 76 14t75.5 42t61.5 76.5t28 109.5h-219v57l271 -2v-346l-54 -1l1 135 q-39 -69 -105.5 -104.5t-137.5 -35.5zM345 -245v38q20 1 31 15.5t9 36.5h-43v85h81v-85q1 -41 -21.5 -65.5t-56.5 -24.5z" glyph-name="Gcommaaccent" horiz-adv-x="765" unicode="Ģ"/><glyph d="M275 -206q-87 0 -144.5 46t-61.5 122h56q5 -57 48.5 -87t101.5 -30q80 0 126.5 46.5t46.5 137.5v66q-23 -45 -72 -72.5t-105 -27.5q-97 0 -159 72.5t-62 185.5q0 112 63 185t161 73q54 0 102 -27t72 -71v87h55v-471q0 -116 -62.5 -175.5t-165.5 -59.5zM275 48 q80 0 128.5 59t48.5 151q0 88 -48.5 143.5t-128.5 55.5q-76 0 -121 -57t-45 -147q0 -91 45 -148t121 -57zM254 -445v38q20 1 31 15.5t9 36.5h-43v85h81v-85q1 -41 -21.5 -65.5t-56.5 -24.5z" glyph-name="gcommaaccent" horiz-adv-x="583" unicode="ģ"/><glyph d="M311 852h71l100 -100h-67l-68 67l-67 -67h-69zM95 0v700h57v-319h389v319h57v-700h-57v328h-389v-328h-57z" glyph-name="Hcircumflex" horiz-adv-x="693" unicode="Ĥ"/><glyph d="M85 0v700h55v-272q21 36 64 60.5t96 24.5q85 0 134.5 -57t49.5 -149v-307h-55v307q-1 65 -38 111t-95 46q-73 0 -114 -49t-42 -134v-281h-55zM291 700h71l100 -100h-67l-68 67l-67 -67h-69z" glyph-name="hcircumflex" unicode="ĥ"/><glyph d="M643 593v-54h-45v-539h-57v328h-389v-328h-57v539h-44v54h44v107h57v-107h389v107h57v-107h45zM541 381v158h-389v-158h389z" glyph-name="Hbar" horiz-adv-x="749" unicode="Ħ"/><glyph d="M371 513q85 0 134.5 -57t49.5 -149v-307h-55v307q-1 65 -38 111t-95 46q-73 0 -114 -49t-42 -134v-281h-55v590h-71v43h71v67h55v-67h132v-43h-132v-162q21 36 64 60.5t96 24.5z" glyph-name="hbar" horiz-adv-x="635" unicode="ħ"/><glyph d="M200 748q-57 0 -90 53q-20 33 -52 33q-22 0 -36 -17t-14 -45q0 -10 1 -15h-44q-1 5 -1 16q0 46 26 75t66 29q56 0 90 -53q20 -33 53 -33q23 0 36.5 17.5t13.5 45.5q0 2 -0.5 6.5t-0.5 6.5h43q1 -6 1 -18q0 -44 -25.5 -72.5t-66.5 -28.5zM100 0v700h55v-700h-55z" glyph-name="Itilde" horiz-adv-x="255" unicode="Ĩ"/><glyph d="M200 548q-57 0 -90 53q-20 33 -52 33q-22 0 -36 -17t-14 -45q0 -10 1 -15h-44q-1 5 -1 16q0 46 26 75t66 29q56 0 90 -53q20 -33 53 -33q23 0 36.5 17.5t13.5 45.5q0 2 -0.5 6.5t-0.5 6.5h43q1 -6 1 -18q0 -44 -25.5 -72.5t-66.5 -28.5zM100 0v500h55v-500h-55z" glyph-name="itilde" horiz-adv-x="269" unicode="ĩ"/><glyph d="M-24 776v46h310v-46h-310zM100 0v700h55v-700h-55z" glyph-name="Imacron" horiz-adv-x="243" unicode="Ī"/><glyph d="M-34 576v46h310v-46h-310zM90 0v500h55v-500h-55z" glyph-name="imacron" horiz-adv-x="252" unicode="ī"/><glyph d="M108 755q-70 0 -115.5 41t-45.5 108h43q0 -46 31 -77.5t87 -31.5q57 0 88.5 31.5t31.5 77.5h42q0 -67 -45.5 -108t-116.5 -41zM80 0v700h55v-700h-55z" glyph-name="Ibreve" horiz-adv-x="214" unicode="Ĭ"/><glyph d="M138 555q-70 0 -115.5 41t-45.5 108h43q0 -46 31 -77.5t87 -31.5q57 0 88.5 31.5t31.5 77.5h42q0 -67 -45.5 -108t-116.5 -41zM110 0v500h55v-500h-55z" glyph-name="ibreve" horiz-adv-x="275" unicode="ĭ"/><glyph d="M171 -178l23 -33q-50 -49 -125 -49q-50 0 -80 27.5t-30 74.5q0 85 118 160v698h55v-700h-1q-48 -21 -86.5 -62.5t-38.5 -89.5q0 -31 18 -50t51 -19q58 0 96 43z" glyph-name="Iogonek" horiz-adv-x="208" unicode="Į"/><glyph d="M145 700v-73h-65v73h65zM180 -178l23 -33q-50 -49 -125 -49q-50 0 -80 27.5t-30 74.5q0 85 117 159v499h55v-500q-48 -21 -86.5 -62.5t-38.5 -89.5q0 -31 18 -50t51 -19q58 0 96 43z" glyph-name="iogonek" horiz-adv-x="225" unicode="į"/><glyph d="M85 767v85h81v-85h-81zM100 0v700h55v-700h-55z" glyph-name="Idotaccent" horiz-adv-x="255" unicode="İ"/><glyph d="M80 0v500h55v-500h-55z" glyph-name="dotlessi" horiz-adv-x="215" unicode="ı"/><glyph d="M353 824h71l100 -100h-67l-68 67l-67 -67h-69zM224 -8q-87 0 -139.5 53t-54.5 142v54h55v-54q2 -65 39.5 -104t98.5 -39q65 0 102.5 41t37.5 114v501h56v-501q0 -96 -52.5 -151.5t-142.5 -55.5z" glyph-name="Jcircumflex" horiz-adv-x="504" unicode="Ĵ"/><glyph d="M122 649h71l100 -100h-67l-68 67l-67 -67h-69zM51 -177v54h19q28 0 45.5 18.5t17.5 53.5v551h55v-551q0 -60 -31.5 -93t-86.5 -33h-19z" glyph-name="jcircumflex" horiz-adv-x="309" unicode="ĵ"/><glyph d="M95 0v700h55v-364l345 364l75 1l-281 -298l285 -403h-72l-252 361l-100 -106v-255h-55zM262 -245v38q20 1 31 15.5t9 36.5h-43v85h81v-85q1 -41 -21.5 -65.5t-56.5 -24.5z" glyph-name="Kcommaaccent" horiz-adv-x="599" unicode="Ķ"/><glyph d="M85 0v700h55v-459l248 259h68l-184 -193l203 -307l-66 1l-176 262l-93 -97v-166h-55zM215 -245v38q20 1 31 15.5t9 36.5h-43v85h81v-85q1 -41 -21.5 -65.5t-56.5 -24.5z" glyph-name="kcommaaccent" horiz-adv-x="505" unicode="ķ"/><glyph d="M155 759h-59l105 117h69zM95 0v700h57v-647h322v-53h-379z" glyph-name="Lacute" horiz-adv-x="509" unicode="Ĺ"/><glyph d="M139 759h-59l105 117h69zM85 0v700h55v-700h-55z" glyph-name="lacute" horiz-adv-x="225" unicode="ĺ"/><glyph d="M95 0v700h57v-647h322v-53h-379zM217 -245v38q20 1 31 15.5t9 36.5h-43v85h81v-85q1 -41 -21.5 -65.5t-56.5 -24.5z" glyph-name="Lcommaaccent" horiz-adv-x="509" unicode="Ļ"/><glyph d="M85 0v700h55v-700h-55zM75 -245v38q20 1 31 15.5t9 36.5h-43v85h81v-85q1 -41 -21.5 -65.5t-56.5 -24.5z" glyph-name="lcommaaccent" horiz-adv-x="225" unicode="ļ"/><glyph d="M-10 846h69l67 -67l68 67h67l-100 -100h-71zM95 0v700h57v-647h322v-53h-379z" glyph-name="Lcaron" horiz-adv-x="509" unicode="Ľ"/><glyph d="M-26 846h69l67 -67l68 67h67l-100 -100h-71zM85 0v700h55v-700h-55z" glyph-name="lcaron" horiz-adv-x="225" unicode="ľ"/><glyph d="M80 775v85h81v-85h-81zM95 0v700h57v-647h322v-53h-379z" glyph-name="Ldot" horiz-adv-x="509" unicode="Ŀ"/><glyph d="M73 749v85h81v-85h-81zM85 0v700h55v-700h-55z" glyph-name="ldot" horiz-adv-x="239" unicode="ŀ"/><glyph d="M152 53h322v-53h-379v319l-94 -47v54l94 47v327h57v-298l172 87v-54l-172 -87v-295z" glyph-name="Lslash" horiz-adv-x="537" unicode="Ł"/><glyph d="M222 472v-50l-82 -37v-385h-55v360l-72 -33v50l72 33v290h55v-265z" glyph-name="lslash" horiz-adv-x="273" unicode="ł"/><glyph d="M384 759h-59l105 117h69zM555 -1l-405 617v-616h-55v700h65l405 -617v616h55v-700h-65z" glyph-name="Nacute" horiz-adv-x="715" unicode="Ń"/><glyph d="M308 559h-59l105 117h69zM85 0v500h55v-72q21 36 64 60.5t96 24.5q85 0 134.5 -57t49.5 -149v-307h-55v307q0 70 -37 113.5t-96 43.5q-67 0 -111 -50t-45 -133v-281h-55z" glyph-name="nacute" unicode="ń"/><glyph d="M555 -1l-405 617v-616h-55v700h65l405 -617v616h55v-700h-65zM320 -245v38q20 1 31 15.5t9 36.5h-43v85h81v-85q1 -41 -21.5 -65.5t-56.5 -24.5z" glyph-name="Ncommaaccent" horiz-adv-x="715" unicode="Ņ"/><glyph d="M85 0v500h55v-72q21 36 64 60.5t96 24.5q85 0 134.5 -57t49.5 -149v-307h-55v307q0 70 -37 113.5t-96 43.5q-67 0 -111 -50t-45 -133v-281h-55zM244 -245v38q20 1 31 15.5t9 36.5h-43v85h81v-85q1 -41 -21.5 -65.5t-56.5 -24.5z" glyph-name="ncommaaccent" unicode="ņ"/><glyph d="M219 846h69l67 -67l68 67h67l-100 -100h-71zM555 -1l-405 617v-616h-55v700h65l405 -617v616h55v-700h-65z" glyph-name="Ncaron" horiz-adv-x="715" unicode="Ň"/><glyph d="M143 646h69l67 -67l68 67h67l-100 -100h-71zM85 0v500h55v-72q21 36 64 60.5t96 24.5q85 0 134.5 -57t49.5 -149v-307h-55v307q0 70 -37 113.5t-96 43.5q-67 0 -111 -50t-45 -133v-281h-55z" glyph-name="ncaron" unicode="ň"/><glyph d="M565 699h55v-700q-1 -81 -37.5 -123t-100.5 -42v55q28 0 52 24t24 61q0 12 -3 25l-405 617v-616h-55v700h65l405 -617v616z" glyph-name="Eng" horiz-adv-x="715" unicode="Ŋ"/><glyph d="M300 513q85 0 134.5 -57t49.5 -149v-307q-1 -89 -34.5 -127.5t-103.5 -38.5v54q45 0 65 26t18 86v307q0 70 -37 113.5t-96 43.5q-67 0 -111 -50t-45 -133v-281h-55v500h55v-72q21 36 64 60.5t96 24.5z" glyph-name="eng" unicode="ŋ"/><glyph d="M230 776v46h310v-46h-310zM382 -10q-138 0 -230 105t-92 255q0 154 90 256t232 102t232 -103t90 -257q0 -150 -91.5 -254t-230.5 -104zM380 46q118 0 193.5 86t75.5 212q0 132 -74.5 220.5t-192.5 88.5t-191.5 -88t-73.5 -219q0 -126 74 -213t189 -87z" glyph-name="Omacron" horiz-adv-x="764" unicode="Ō"/><glyph d="M130 576v46h310v-46h-310zM282 -5q-102 0 -167 71.5t-65 183.5q0 113 65 185t167 72q107 0 169 -71t62 -186q0 -112 -65 -183.5t-166 -71.5zM280 47q79 0 129 56.5t50 144.5q0 93 -46.5 150t-130.5 57q-77 0 -126.5 -57.5t-49.5 -147.5q0 -89 49 -146t125 -57z" glyph-name="omacron" horiz-adv-x="563" unicode="ō"/><glyph d="M382 755q-70 0 -115.5 41t-45.5 108h43q0 -46 31 -77.5t87 -31.5q57 0 88.5 31.5t31.5 77.5h42q0 -67 -45.5 -108t-116.5 -41zM382 -10q-138 0 -230 105t-92 255q0 154 90 256t232 102t232 -103t90 -257q0 -150 -91.5 -254t-230.5 -104zM380 46q118 0 193.5 86t75.5 212 q0 132 -74.5 220.5t-192.5 88.5t-191.5 -88t-73.5 -219q0 -126 74 -213t189 -87z" glyph-name="Obreve" horiz-adv-x="764" unicode="Ŏ"/><glyph d="M282 555q-70 0 -115.5 41t-45.5 108h43q0 -46 31 -77.5t87 -31.5q57 0 88.5 31.5t31.5 77.5h42q0 -67 -45.5 -108t-116.5 -41zM282 -5q-102 0 -167 71.5t-65 183.5q0 113 65 185t167 72q107 0 169 -71t62 -186q0 -112 -65 -183.5t-166 -71.5zM280 47q79 0 129 56.5 t50 144.5q0 93 -46.5 150t-130.5 57q-77 0 -126.5 -57.5t-49.5 -147.5q0 -89 49 -146t125 -57z" glyph-name="obreve" horiz-adv-x="563" unicode="ŏ"/><glyph d="M262 762v85h81v-85h-81zM414 762v85h81v-85h-81zM382 -10q-138 0 -230 105t-92 255q0 154 90 256t232 102t232 -103t90 -257q0 -150 -91.5 -254t-230.5 -104zM380 46q118 0 193.5 86t75.5 212q0 132 -74.5 220.5t-192.5 88.5t-191.5 -88t-73.5 -219q0 -126 74 -213 t189 -87z" glyph-name="Ohungarumlaut" horiz-adv-x="764" unicode="Ő"/><glyph d="M162 562v85h81v-85h-81zM314 562v85h81v-85h-81zM282 -5q-102 0 -167 71.5t-65 183.5q0 113 65 185t167 72q107 0 169 -71t62 -186q0 -112 -65 -183.5t-166 -71.5zM280 47q79 0 129 56.5t50 144.5q0 93 -46.5 150t-130.5 57q-77 0 -126.5 -57.5t-49.5 -147.5 q0 -89 49 -146t125 -57z" glyph-name="ohungarumlaut" horiz-adv-x="563" unicode="ő"/><glyph d="M1085 647h-372v-266h351v-53h-351v-275h372v-53h-429v156q-42 -77 -114 -121.5t-160 -44.5q-138 0 -230 105t-92 255q0 154 90 256t232 102q90 0 161.5 -43.5t112.5 -119.5v155h429v-53zM380 46q118 0 193.5 86t75.5 212q0 132 -74.5 220.5t-192.5 88.5t-191.5 -88 t-73.5 -219q0 -126 74 -213t189 -87z" glyph-name="OE" horiz-adv-x="1135" unicode="Œ"/><glyph d="M699 42q56 0 99.5 34t54.5 85h53q-10 -75 -68.5 -123.5t-141.5 -48.5q-72 0 -126 38t-80 105q-28 -64 -83 -100.5t-125 -36.5q-102 0 -167 71.5t-65 183.5q0 113 65 185t167 72q75 0 129 -36t80 -100q52 135 206 135q106 0 161 -72t56 -194h-385v-1q0 -90 45.5 -143.5 t124.5 -53.5zM280 47q79 0 129 56.5t50 144.5q0 93 -46.5 150t-130.5 57q-77 0 -126.5 -57.5t-49.5 -147.5q0 -89 49 -146t125 -57zM695 454q-73 0 -113 -44t-50 -119h321q-10 78 -46.5 120.5t-111.5 42.5z" glyph-name="oe" horiz-adv-x="964" unicode="œ"/><glyph d="M354 759h-59l105 117h69zM95 -1v701l267 1q100 1 152.5 -47.5t52.5 -137.5q0 -50 -31.5 -95t-80.5 -60q24 -7 40.5 -20t26 -26.5t15.5 -37t8 -41.5t4 -52q7 -95 11.5 -124.5t20.5 -59.5h-63q-4 10 -7 19.5t-5 25.5t-3 25.5t-3 40t-3 48.5q0 5 -1.5 27.5t-2.5 29 t-3.5 25.5t-6 25.5t-10 20.5t-16 19.5t-22 13t-30 10t-38.5 2.5h-217v-333h-55zM150 383h212q66 0 109.5 38t43.5 95q0 64 -39.5 99t-113.5 35h-211z" glyph-name="Racute" horiz-adv-x="655" unicode="Ŕ"/><glyph d="M195 559h-59l105 117h69zM85 0v500h55v-72q13 32 53.5 58.5t114.5 21.5v-54q-168 7 -168 -157v-297h-55z" glyph-name="racute" horiz-adv-x="338" unicode="ŕ"/><glyph d="M95 -1v701l267 1q100 1 152.5 -47.5t52.5 -137.5q0 -50 -31.5 -95t-80.5 -60q24 -7 40.5 -20t26 -26.5t15.5 -37t8 -41.5t4 -52q7 -95 11.5 -124.5t20.5 -59.5h-63q-4 10 -7 19.5t-5 25.5t-3 25.5t-3 40t-3 48.5q0 5 -1.5 27.5t-2.5 29t-3.5 25.5t-6 25.5t-10 20.5 t-16 19.5t-22 13t-30 10t-38.5 2.5h-217v-333h-55zM150 383h212q66 0 109.5 38t43.5 95q0 64 -39.5 99t-113.5 35h-211zM290 -245v38q20 1 31 15.5t9 36.5h-43v85h81v-85q1 -41 -21.5 -65.5t-56.5 -24.5z" glyph-name="Rcommaaccent" horiz-adv-x="655" unicode="Ŗ"/><glyph d="M85 0v500h55v-72q13 32 53.5 58.5t114.5 21.5v-54q-168 7 -168 -157v-297h-55zM75 -245v38q20 1 31 15.5t9 36.5h-43v85h81v-85q1 -41 -21.5 -65.5t-56.5 -24.5z" glyph-name="rcommaaccent" horiz-adv-x="338" unicode="ŗ"/><glyph d="M189 846h69l67 -67l68 67h67l-100 -100h-71zM95 -1v701l267 1q100 1 152.5 -47.5t52.5 -137.5q0 -50 -31.5 -95t-80.5 -60q24 -7 40.5 -20t26 -26.5t15.5 -37t8 -41.5t4 -52q7 -95 11.5 -124.5t20.5 -59.5h-63q-4 10 -7 19.5t-5 25.5t-3 25.5t-3 40t-3 48.5 q0 5 -1.5 27.5t-2.5 29t-3.5 25.5t-6 25.5t-10 20.5t-16 19.5t-22 13t-30 10t-38.5 2.5h-217v-333h-55zM150 383h212q66 0 109.5 38t43.5 95q0 64 -39.5 99t-113.5 35h-211z" glyph-name="Rcaron" horiz-adv-x="655" unicode="Ř"/><glyph d="M30 646h69l67 -67l68 67h67l-100 -100h-71zM85 0v500h55v-72q13 32 53.5 58.5t114.5 21.5v-54q-168 7 -168 -157v-297h-55z" glyph-name="rcaron" horiz-adv-x="338" unicode="ř"/><glyph d="M344 759h-59l105 117h69zM332 -7q-111 0 -190 58t-87 165h64q9 -80 68 -125t155 -45q85 0 132.5 38.5t47.5 106.5q0 58 -42 89t-145 50q-140 25 -200.5 70t-60.5 124q0 76 65 129t160 53q123 0 195 -59.5t72 -162.5h-58q-12 169 -204 169q-73 0 -122 -37t-49 -92 q0 -58 52 -89t146 -47q140 -25 195 -68.5t55 -130.5q0 -89 -68.5 -142.5t-180.5 -53.5z" glyph-name="Sacute" horiz-adv-x="636" unicode="Ś"/><glyph d="M266 559h-59l105 117h69zM250 -11q-82 0 -141.5 45t-63.5 126h58q4 -59 46.5 -90t107.5 -31t93.5 28.5t28.5 69.5q0 40 -29.5 60t-97.5 32q-99 17 -145.5 50.5t-46.5 94.5q0 57 48.5 96t118.5 39q87 0 142 -43.5t54 -126.5h-54q-3 121 -139 121q-50 0 -83 -24.5 t-33 -61.5q0 -39 35 -60t101 -32q100 -17 142 -49t42 -98q0 -62 -48 -104t-136 -42z" glyph-name="sacute" horiz-adv-x="479" unicode="ś"/><glyph d="M282 852h71l100 -100h-67l-68 67l-67 -67h-69zM332 -7q-111 0 -190 58t-87 165h64q9 -80 68 -125t155 -45q85 0 132.5 38.5t47.5 106.5q0 58 -42 89t-145 50q-140 25 -200.5 70t-60.5 124q0 76 65 129t160 53q123 0 195 -59.5t72 -162.5h-58q-12 169 -204 169 q-73 0 -122 -37t-49 -92q0 -58 52 -89t146 -47q140 -25 195 -68.5t55 -130.5q0 -89 -68.5 -142.5t-180.5 -53.5z" glyph-name="Scircumflex" horiz-adv-x="636" unicode="Ŝ"/><glyph d="M204 652h71l100 -100h-67l-68 67l-67 -67h-69zM250 -11q-82 0 -141.5 45t-63.5 126h58q4 -59 46.5 -90t107.5 -31t93.5 28.5t28.5 69.5q0 40 -29.5 60t-97.5 32q-99 17 -145.5 50.5t-46.5 94.5q0 57 48.5 96t118.5 39q87 0 142 -43.5t54 -126.5h-54q-3 121 -139 121 q-50 0 -83 -24.5t-33 -61.5q0 -39 35 -60t101 -32q100 -17 142 -49t42 -98q0 -62 -48 -104t-136 -42z" glyph-name="scircumflex" horiz-adv-x="479" unicode="ŝ"/><glyph d="M332 -7h-11l-16 -35q15 3 28 3q43 0 71.5 -26t28.5 -67q0 -42 -29 -71t-71 -29q-32 0 -65 17t-49 42l32 16q13 -16 36.5 -27.5t45.5 -11.5q27 0 45 18.5t18 45.5q0 28 -18 44t-47 16q-18 0 -42 -8l-31 22l26 54q-95 12 -158.5 68.5t-70.5 151.5h64q9 -80 68 -125t155 -45 q85 0 132.5 38.5t47.5 106.5q0 58 -42 89t-145 50q-140 25 -200.5 70t-60.5 124q0 76 65 129t160 53q123 0 195 -59.5t72 -162.5h-58q-12 169 -204 169q-73 0 -122 -37t-49 -92q0 -58 52 -89t146 -47q140 -25 195 -68.5t55 -130.5q0 -89 -68.5 -142.5t-180.5 -53.5z" glyph-name="Scedilla" horiz-adv-x="636" unicode="Ş"/><glyph d="M250 -11h-7l-16 -36q15 3 28 3q43 0 71.5 -26t28.5 -67q0 -42 -29 -71t-71 -29q-32 0 -65 17t-49 42l32 16q13 -16 36.5 -27.5t45.5 -11.5q27 0 45 18.5t18 45.5q0 28 -18 44t-47 16q-18 0 -42 -8l-31 22l27 55q-68 11 -113 54.5t-49 113.5h58q4 -59 46.5 -90t107.5 -31 t93.5 28.5t28.5 69.5q0 40 -29.5 60t-97.5 32q-99 17 -145.5 50.5t-46.5 94.5q0 57 48.5 96t118.5 39q87 0 142 -43.5t54 -126.5h-54q-3 121 -139 121q-50 0 -83 -24.5t-33 -61.5q0 -39 35 -60t101 -32q100 -17 142 -49t42 -98q0 -62 -48 -104t-136 -42z" glyph-name="scedilla" horiz-adv-x="479" unicode="ş"/><glyph d="M179 846h69l67 -67l68 67h67l-100 -100h-71zM332 -7q-111 0 -190 58t-87 165h64q9 -80 68 -125t155 -45q85 0 132.5 38.5t47.5 106.5q0 58 -42 89t-145 50q-140 25 -200.5 70t-60.5 124q0 76 65 129t160 53q123 0 195 -59.5t72 -162.5h-58q-12 169 -204 169 q-73 0 -122 -37t-49 -92q0 -58 52 -89t146 -47q140 -25 195 -68.5t55 -130.5q0 -89 -68.5 -142.5t-180.5 -53.5z" glyph-name="Scaron" horiz-adv-x="636" unicode="Š"/><glyph d="M101 646h69l67 -67l68 67h67l-100 -100h-71zM250 -11q-82 0 -141.5 45t-63.5 126h58q4 -59 46.5 -90t107.5 -31t93.5 28.5t28.5 69.5q0 40 -29.5 60t-97.5 32q-99 17 -145.5 50.5t-46.5 94.5q0 57 48.5 96t118.5 39q87 0 142 -43.5t54 -126.5h-54q-3 121 -139 121 q-50 0 -83 -24.5t-33 -61.5q0 -39 35 -60t101 -32q100 -17 142 -49t42 -98q0 -62 -48 -104t-136 -42z" glyph-name="scaron" horiz-adv-x="479" unicode="š"/><glyph d="M334 647v-629q6 1 18 1q43 0 71.5 -26t28.5 -67q0 -42 -29 -71t-71 -29q-32 0 -65 17t-49 42l32 16q13 -16 36.5 -27.5t45.5 -11.5q27 0 45 18.5t18 45.5q0 28 -18 44t-47 16q-18 0 -42 -8l-31 22v647h-257v53h570v-53h-256z" glyph-name="Tcommaaccent" horiz-adv-x="610" unicode="Ţ"/><glyph d="M174 -26q43 0 71.5 -26t28.5 -67q0 -42 -29 -71t-71 -29q-32 0 -65 17t-49 42l32 16q13 -16 36.5 -27.5t45.5 -11.5q27 0 45 18.5t18 45.5q0 28 -18 44t-47 16q-18 0 -42 -8l-31 22l32 66q-46 32 -46 105v323h-75v51h75v138h55v-138h116v-51h-116v-323q0 -35 17.5 -53.5 t45.5 -18.5h55v-54h-55q-23 0 -41 6l-16 -35q15 3 28 3z" glyph-name="tcommaaccent" horiz-adv-x="304" unicode="ţ"/><glyph d="M166 846h69l67 -67l68 67h67l-100 -100h-71zM277 0v647h-257v53h570v-53h-256v-647h-57z" glyph-name="Tcaron" horiz-adv-x="610" unicode="Ť"/><glyph d="M-24 784h69l67 -67l68 67h67l-100 -100h-71zM203 0q-55 0 -86.5 33t-31.5 93v323h-75v51h75v138h55v-138h116v-51h-116v-323q0 -35 17.5 -53.5t45.5 -18.5h55v-54h-55z" glyph-name="tcaron" horiz-adv-x="288" unicode="ť"/><glyph d="M153 776v46h310v-46h-310zM277 0v647h-257v53h570v-53h-256v-647h-57z" glyph-name="Tbar" horiz-adv-x="610" unicode="Ŧ"/><glyph d="M258 350h-118v-224q0 -35 17.5 -53.5t45.5 -18.5h55v-54h-55q-55 0 -86.5 33t-31.5 93v224h-74v46h74v53h-75v51h75v138h55v-138h116v-51h-116v-53h118v-46z" glyph-name="tbar" horiz-adv-x="288" unicode="ŧ"/><glyph d="M417 748q-57 0 -90 53q-20 33 -52 33q-22 0 -36 -17t-14 -45q0 -10 1 -15h-44q-1 5 -1 16q0 46 26 75t66 29q56 0 90 -53q20 -33 53 -33q23 0 36.5 17.5t13.5 45.5q0 2 -0.5 6.5t-0.5 6.5h43q1 -6 1 -18q0 -44 -25.5 -72.5t-66.5 -28.5zM345 -8q-118 0 -189 70t-71 191 v447h56v-447q0 -96 55.5 -151.5t148.5 -55.5t148.5 55.5t55.5 151.5v447h56v-447q0 -121 -71 -191t-189 -70z" glyph-name="Utilde" horiz-adv-x="690" unicode="Ũ"/><glyph d="M354 548q-57 0 -90 53q-20 33 -52 33q-22 0 -36 -17t-14 -45q0 -10 1 -15h-44q-1 5 -1 16q0 46 26 75t66 29q56 0 90 -53q20 -33 53 -33q23 0 36.5 17.5t13.5 45.5q0 2 -0.5 6.5t-0.5 6.5h43q1 -6 1 -18q0 -44 -25.5 -72.5t-66.5 -28.5zM264 -13q-85 0 -134.5 57 t-49.5 149v307h55v-307q1 -65 38 -111t95 -46q73 0 114 49t42 134v281h55v-500h-55v72q-21 -36 -64 -60.5t-96 -24.5z" glyph-name="utilde" unicode="ũ"/><glyph d="M193 776v46h310v-46h-310zM345 -8q-118 0 -189 70t-71 191v447h56v-447q0 -96 55.5 -151.5t148.5 -55.5t148.5 55.5t55.5 151.5v447h56v-447q0 -121 -71 -191t-189 -70z" glyph-name="Umacron" horiz-adv-x="690" unicode="Ū"/><glyph d="M130 576v46h310v-46h-310zM264 -13q-85 0 -134.5 57t-49.5 149v307h55v-307q1 -65 38 -111t95 -46q73 0 114 49t42 134v281h55v-500h-55v72q-21 -36 -64 -60.5t-96 -24.5z" glyph-name="umacron" unicode="ū"/><glyph d="M345 755q-70 0 -115.5 41t-45.5 108h43q0 -46 31 -77.5t87 -31.5q57 0 88.5 31.5t31.5 77.5h42q0 -67 -45.5 -108t-116.5 -41zM345 -8q-118 0 -189 70t-71 191v447h56v-447q0 -96 55.5 -151.5t148.5 -55.5t148.5 55.5t55.5 151.5v447h56v-447q0 -121 -71 -191t-189 -70z " glyph-name="Ubreve" horiz-adv-x="690" unicode="Ŭ"/><glyph d="M282 555q-70 0 -115.5 41t-45.5 108h43q0 -46 31 -77.5t87 -31.5q57 0 88.5 31.5t31.5 77.5h42q0 -67 -45.5 -108t-116.5 -41zM264 -13q-85 0 -134.5 57t-49.5 149v307h55v-307q1 -65 38 -111t95 -46q73 0 114 49t42 134v281h55v-500h-55v72q-21 -36 -64 -60.5t-96 -24.5 z" glyph-name="ubreve" unicode="ŭ"/><glyph d="M345 745q-40 0 -69 28.5t-29 67.5q0 40 29 68.5t69 28.5q39 0 67 -28.5t28 -68.5q0 -39 -28 -67.5t-67 -28.5zM345 785q23 0 39.5 16.5t16.5 39.5q0 24 -16.5 41t-39.5 17q-24 0 -40.5 -17t-16.5 -41q0 -23 16.5 -39.5t40.5 -16.5zM345 -8q-118 0 -189 70t-71 191v447h56 v-447q0 -96 55.5 -151.5t148.5 -55.5t148.5 55.5t55.5 151.5v447h56v-447q0 -121 -71 -191t-189 -70z" glyph-name="Uring" horiz-adv-x="690" unicode="Ů"/><glyph d="M282 545q-40 0 -69 28.5t-29 67.5q0 40 29 68.5t69 28.5q39 0 67 -28.5t28 -68.5q0 -39 -28 -67.5t-67 -28.5zM282 585q23 0 39.5 16.5t16.5 39.5q0 24 -16.5 41t-39.5 17q-24 0 -40.5 -17t-16.5 -41q0 -23 16.5 -39.5t40.5 -16.5zM264 -13q-85 0 -134.5 57t-49.5 149 v307h55v-307q1 -65 38 -111t95 -46q73 0 114 49t42 134v281h55v-500h-55v72q-21 -36 -64 -60.5t-96 -24.5z" glyph-name="uring" unicode="ů"/><glyph d="M225 762v85h81v-85h-81zM377 762v85h81v-85h-81zM345 -8q-118 0 -189 70t-71 191v447h56v-447q0 -96 55.5 -151.5t148.5 -55.5t148.5 55.5t55.5 151.5v447h56v-447q0 -121 -71 -191t-189 -70z" glyph-name="Uhungarumlaut" horiz-adv-x="690" unicode="Ű"/><glyph d="M162 562v85h81v-85h-81zM314 562v85h81v-85h-81zM264 -13q-85 0 -134.5 57t-49.5 149v307h55v-307q1 -65 38 -111t95 -46q73 0 114 49t42 134v281h55v-500h-55v72q-21 -36 -64 -60.5t-96 -24.5z" glyph-name="uhungarumlaut" unicode="ű"/><glyph d="M549 700h56v-447q0 -112 -61 -180.5t-165 -78.5q-43 -25 -73.5 -62.5t-30.5 -79.5q0 -31 18 -50t51 -19q58 0 96 43l23 -33q-50 -49 -125 -49q-50 0 -80 27.5t-30 74.5q0 77 98 146q-110 6 -175.5 75.5t-65.5 185.5v447h56v-447q0 -96 55.5 -151.5t148.5 -55.5 t148.5 55.5t55.5 151.5v447z" glyph-name="Uogonek" horiz-adv-x="690" unicode="Ų"/><glyph d="M518 -178l23 -33q-50 -49 -125 -49q-50 0 -80 27.5t-30 74.5q0 85 118 160v70q-21 -36 -64 -60.5t-96 -24.5q-85 0 -134.5 57t-49.5 149v307h55v-307q1 -65 38 -111t95 -46q73 0 114 49t42 134v281h55v-500h-1q-48 -21 -86.5 -62.5t-38.5 -89.5q0 -31 18 -50t51 -19 q58 0 96 43z" glyph-name="uogonek" unicode="ų"/><glyph d="M424 852h71l100 -100h-67l-68 67l-67 -67h-69zM224 0l-189 700h54l174 -625l170 625h56l171 -626l169 626h56l-189 -700h-75l-160 599l-162 -599h-75z" glyph-name="Wcircumflex" horiz-adv-x="920" unicode="Ŵ"/><glyph d="M335 652h71l100 -100h-67l-68 67l-67 -67h-69zM177 0l-152 500h66l124 -447l123 447h66l124 -447l123 447h66l-151 -500h-77l-117 427l-117 -427h-78z" glyph-name="wcircumflex" horiz-adv-x="742" unicode="ŵ"/><glyph d="M276 852h71l100 -100h-67l-68 67l-67 -67h-69zM283 0v292l-253 408h61l221 -359l221 359h61l-253 -408v-292h-58z" glyph-name="Ycircumflex" horiz-adv-x="624" unicode="Ŷ"/><glyph d="M209 652h71l100 -100h-67l-68 67l-67 -67h-69zM45 -200v53h28q75 0 104 72l40 104l-197 471h65l160 -398l160 398h64l-234 -582q-22 -58 -57.5 -87.5t-104.5 -30.5h-28z" glyph-name="ycircumflex" horiz-adv-x="489" unicode="ŷ"/><glyph d="M193 754v85h81v-85h-81zM345 754v85h81v-85h-81zM283 0v292l-253 408h61l221 -359l221 359h61l-253 -408v-292h-58z" glyph-name="Ydieresis" horiz-adv-x="624" unicode="Ÿ"/><glyph d="M356 759h-59l105 117h69zM60 0v53l479 594h-473v53h543v-53l-482 -594h476v-53h-543z" glyph-name="Zacute" horiz-adv-x="659" unicode="Ź"/><glyph d="M278 559h-59l105 117h69zM50 0v51l327 398h-327v52l393 -1v-51l-324 -398h322v-51h-391z" glyph-name="zacute" horiz-adv-x="503" unicode="ź"/><glyph d="M287 767v85h81v-85h-81zM60 0v53l479 594h-473v53h543v-53l-482 -594h476v-53h-543z" glyph-name="Zdotaccent" horiz-adv-x="659" unicode="Ż"/><glyph d="M209 567v85h81v-85h-81zM50 0v51l327 398h-327v52l393 -1v-51l-324 -398h322v-51h-391z" glyph-name="zdotaccent" horiz-adv-x="503" unicode="ż"/><glyph d="M191 846h69l67 -67l68 67h67l-100 -100h-71zM60 0v53l479 594h-473v53h543v-53l-482 -594h476v-53h-543z" glyph-name="Zcaron" horiz-adv-x="659" unicode="Ž"/><glyph d="M113 646h69l67 -67l68 67h67l-100 -100h-71zM50 0v51l327 398h-327v52l393 -1v-51l-324 -398h322v-51h-391z" glyph-name="zcaron" horiz-adv-x="503" unicode="ž"/><glyph d="M268 711q100 0 163 -70.5t63 -186.5t-61 -188t-166 -72q-100 0 -158 73.5t-59 192.5h385v1q0 90 -45.5 143.5t-124.5 53.5q-56 0 -99.5 -34t-54.5 -85h-53q10 75 68.5 123.5t141.5 48.5zM432 409h-321q10 -78 46.5 -120.5t111.5 -42.5q73 0 113 44t50 119z" glyph-name="uni018F" horiz-adv-x="544" unicode="Ə"/><glyph d="M332 -7q-111 0 -190 58t-87 165h64q9 -80 68 -125t155 -45q85 0 132.5 38.5t47.5 106.5q0 58 -42 89t-145 50q-140 25 -200.5 70t-60.5 124q0 76 65 129t160 53q123 0 195 -59.5t72 -162.5h-58q-12 169 -204 169q-73 0 -122 -37t-49 -92q0 -58 52 -89t146 -47 q140 -25 195 -68.5t55 -130.5q0 -89 -68.5 -142.5t-180.5 -53.5zM280 -245v38q20 1 31 15.5t9 36.5h-43v85h81v-85q1 -41 -21.5 -65.5t-56.5 -24.5z" glyph-name="Scommaaccent" horiz-adv-x="636" unicode="Ș"/><glyph d="M250 -11q-82 0 -141.5 45t-63.5 126h58q4 -59 46.5 -90t107.5 -31t93.5 28.5t28.5 69.5q0 40 -29.5 60t-97.5 32q-99 17 -145.5 50.5t-46.5 94.5q0 57 48.5 96t118.5 39q87 0 142 -43.5t54 -126.5h-54q-3 121 -139 121q-50 0 -83 -24.5t-33 -61.5q0 -39 35 -60t101 -32 q100 -17 142 -49t42 -98q0 -62 -48 -104t-136 -42zM202 -245v38q20 1 31 15.5t9 36.5h-43v85h81v-85q1 -41 -21.5 -65.5t-56.5 -24.5z" glyph-name="scommaaccent" horiz-adv-x="479" unicode="ș"/><glyph d="M277 0v647h-257v53h570v-53h-256v-647h-57zM267 -245v38q20 1 31 15.5t9 36.5h-43v85h81v-85q1 -41 -21.5 -65.5t-56.5 -24.5z" glyph-name="uni021A" horiz-adv-x="610" unicode="Ț"/><glyph d="M203 0q-55 0 -86.5 33t-31.5 93v323h-75v51h75v138h55v-138h116v-51h-116v-323q0 -35 17.5 -53.5t45.5 -18.5h55v-54h-55zM129 -245v38q20 1 31 15.5t9 36.5h-43v85h81v-85q1 -41 -21.5 -65.5t-56.5 -24.5z" glyph-name="uni021B" horiz-adv-x="288" unicode="ț"/><glyph d="M160 776v46h310v-46h-310zM283 0v292l-253 408h61l221 -359l221 359h61l-253 -408v-292h-58z" glyph-name="uni0232" horiz-adv-x="624" unicode="Ȳ"/><glyph d="M93 576v46h310v-46h-310zM45 -200v53h28q75 0 104 72l40 104l-197 471h65l160 -398l160 398h64l-234 -582q-22 -58 -57.5 -87.5t-104.5 -30.5h-28z" glyph-name="uni0233" horiz-adv-x="489" unicode="ȳ"/><glyph d="M0 -177v54h19q28 0 45.5 18.5t17.5 53.5v551h55v-551q0 -60 -31.5 -93t-86.5 -33h-19z" glyph-name="uni0237" horiz-adv-x="212" unicode="ȷ"/><glyph d="M134 679h71l100 -100h-67l-68 67l-67 -67h-69z" glyph-name="circumflex" horiz-adv-x="53" unicode="ˆ"/><glyph d="M34 679h69l67 -67l68 67h67l-100 -100h-71z" glyph-name="caron" horiz-adv-x="53" unicode="ˇ"/><glyph d="M289 569q-70 0 -115.5 41t-45.5 108h43q0 -46 31 -77.5t87 -31.5q57 0 88.5 31.5t31.5 77.5h42q0 -67 -45.5 -108t-116.5 -41z" glyph-name="breve" horiz-adv-x="53" unicode="˘"/><glyph d="M111 601v85h81v-85h-81z" glyph-name="dotaccent" horiz-adv-x="53" unicode="˙"/><glyph d="M88 561q-40 0 -69 28.5t-29 67.5q0 40 29 68.5t69 28.5q39 0 67 -28.5t28 -68.5q0 -39 -28 -67.5t-67 -28.5zM88 601q23 0 39.5 16.5t16.5 39.5q0 24 -16.5 41t-39.5 17q-24 0 -40.5 -17t-16.5 -41q0 -23 16.5 -39.5t40.5 -16.5z" glyph-name="ring" horiz-adv-x="53" unicode="˚"/><glyph d="M136 -260q-50 0 -80 27.5t-30 74.5q0 91 135 170l37 -12q-48 -21 -86.5 -62.5t-38.5 -89.5q0 -31 18 -50t51 -19q58 0 96 43l23 -33q-50 -49 -125 -49z" glyph-name="ogonek" horiz-adv-x="53" unicode="˛"/><glyph d="M-127 624q-57 0 -90 53q-20 33 -52 33q-22 0 -36 -17t-14 -45q0 -10 1 -15h-44q-1 5 -1 16q0 46 26 75t66 29q56 0 90 -53q20 -33 53 -33q23 0 36.5 17.5t13.5 45.5q0 2 -0.5 6.5t-0.5 6.5h43q1 -6 1 -18q0 -44 -25.5 -72.5t-66.5 -28.5z" glyph-name="tilde" horiz-adv-x="0" unicode="˜"/><glyph d="M98 601v85h81v-85h-81zM250 601v85h81v-85h-81z" glyph-name="hungarumlaut" horiz-adv-x="53" unicode="˝"/><glyph d="M-93 600l-115 117h69l105 -117h-59z" glyph-name="gravecomb" horiz-adv-x="0" unicode="̀"/><glyph d="M-149 600h-59l105 117h69z" glyph-name="acutecomb" horiz-adv-x="0" unicode="́"/><glyph d="M-127 624q-57 0 -90 53q-20 33 -52 33q-22 0 -36 -17t-14 -45q0 -10 1 -15h-44q-1 5 -1 16q0 46 26 75t66 29q56 0 90 -53q20 -33 53 -33q23 0 36.5 17.5t13.5 45.5q0 2 -0.5 6.5t-0.5 6.5h43q1 -6 1 -18q0 -44 -25.5 -72.5t-66.5 -28.5z" glyph-name="tildecomb" horiz-adv-x="0" unicode="̃"/><glyph d="M-122 -226v85h81v-85h-81z" glyph-name="dotbelowcomb" horiz-adv-x="0" unicode="̣"/><glyph d="M-342 -245v38q20 1 31 15.5t9 36.5h-43v85h81v-85q1 -41 -21.5 -65.5t-56.5 -24.5z" glyph-name="uni0326" horiz-adv-x="0" unicode="̦"/><glyph d="M456 761l-115 117h69l105 -117h-59zM224 0l-189 700h54l174 -625l170 625h56l171 -626l169 626h56l-189 -700h-75l-160 599l-162 -599h-75z" glyph-name="Wgrave" horiz-adv-x="920" unicode="Ẁ"/><glyph d="M367 561l-115 117h69l105 -117h-59zM177 0l-152 500h66l124 -447l123 447h66l124 -447l123 447h66l-151 -500h-77l-117 427l-117 -427h-78z" glyph-name="wgrave" horiz-adv-x="742" unicode="ẁ"/><glyph d="M486 759h-59l105 117h69zM224 0l-189 700h54l174 -625l170 625h56l171 -626l169 626h56l-189 -700h-75l-160 599l-162 -599h-75z" glyph-name="Wacute" horiz-adv-x="920" unicode="Ẃ"/><glyph d="M397 559h-59l105 117h69zM177 0l-152 500h66l124 -447l123 447h66l124 -447l123 447h66l-151 -500h-77l-117 427l-117 -427h-78z" glyph-name="wacute" horiz-adv-x="742" unicode="ẃ"/><glyph d="M341 754v85h81v-85h-81zM493 754v85h81v-85h-81zM224 0l-189 700h54l174 -625l170 625h56l171 -626l169 626h56l-189 -700h-75l-160 599l-162 -599h-75z" glyph-name="Wdieresis" horiz-adv-x="920" unicode="Ẅ"/><glyph d="M252 554v85h81v-85h-81zM404 554v85h81v-85h-81zM177 0l-152 500h66l124 -447l123 447h66l124 -447l123 447h66l-151 -500h-77l-117 427l-117 -427h-78z" glyph-name="wdieresis" horiz-adv-x="742" unicode="ẅ"/><glyph d="M100 0v700h55v-700h-55zM88 -169v85h81v-85h-81z" glyph-name="uni1ECA" horiz-adv-x="255" unicode="Ị"/><glyph d="M80 0v500h55v-500h-55zM66 -201v85h81v-85h-81z" glyph-name="uni1ECB" horiz-adv-x="227" unicode="ị"/><glyph d="M382 -10q-138 0 -230 105t-92 255q0 154 90 256t232 102t232 -103t90 -257q0 -150 -91.5 -254t-230.5 -104zM380 46q118 0 193.5 86t75.5 212q0 132 -74.5 220.5t-192.5 88.5t-191.5 -88t-73.5 -219q0 -126 74 -213t189 -87zM342 -169v85h81v-85h-81z" glyph-name="uni1ECC" horiz-adv-x="764" unicode="Ọ"/><glyph d="M282 -5q-102 0 -167 71.5t-65 183.5q0 113 65 185t167 72q107 0 169 -71t62 -186q0 -112 -65 -183.5t-166 -71.5zM280 47q79 0 129 56.5t50 144.5q0 93 -46.5 150t-130.5 57q-77 0 -126.5 -57.5t-49.5 -147.5q0 -89 49 -146t125 -57zM242 -169v85h81v-85h-81z" glyph-name="uni1ECD" horiz-adv-x="563" unicode="ọ"/><glyph d="M345 -8q-118 0 -189 70t-71 191v447h56v-447q0 -96 55.5 -151.5t148.5 -55.5t148.5 55.5t55.5 151.5v447h56v-447q0 -121 -71 -191t-189 -70zM305 -169v85h81v-85h-81z" glyph-name="uni1EE4" horiz-adv-x="690" unicode="Ụ"/><glyph d="M264 -13q-85 0 -134.5 57t-49.5 149v307h55v-307q1 -65 38 -111t95 -46q73 0 114 49t42 134v281h55v-500h-55v72q-21 -36 -64 -60.5t-96 -24.5zM242 -169v85h81v-85h-81z" glyph-name="uni1EE5" unicode="ụ"/><glyph d="M308 761l-115 117h69l105 -117h-59zM283 0v292l-253 408h61l221 -359l221 359h61l-253 -408v-292h-58z" glyph-name="Ygrave" horiz-adv-x="624" unicode="Ỳ"/><glyph d="M241 561l-115 117h69l105 -117h-59zM45 -200v53h28q75 0 104 72l40 104l-197 471h65l160 -398l160 398h64l-234 -582q-22 -58 -57.5 -87.5t-104.5 -30.5h-28z" glyph-name="ygrave" horiz-adv-x="489" unicode="ỳ"/><glyph d="M94 236v38h500v-38h-500z" glyph-name="endash" horiz-adv-x="687" unicode="–"/><glyph d="M10 236v38h1000v-38h-1000z" glyph-name="emdash" horiz-adv-x="1019" unicode="—"/><glyph d="M48 615v85q-1 41 21.5 65.5t56.5 24.5v-38q-20 -1 -31 -15.5t-9 -36.5h43v-85h-81z" glyph-name="quoteleft" horiz-adv-x="157" unicode="‘"/><glyph d="M38 610v38q20 1 31 15.5t9 36.5h-43v85h81v-85q1 -41 -21.5 -65.5t-56.5 -24.5z" glyph-name="quoteright" horiz-adv-x="100" unicode="’"/><glyph d="M53 -90v38q20 1 31 15.5t9 36.5h-43v85h81v-85q1 -41 -21.5 -65.5t-56.5 -24.5z" glyph-name="quotesinglbase" horiz-adv-x="239" unicode="‚"/><glyph d="M11 615v85q0 41 22 65.5t56 24.5v-38q-20 -1 -31 -15.5t-9 -36.5h43v-85h-81zM129 615v85q0 41 22 65.5t56 24.5v-38q-20 -1 -31 -15.5t-9 -36.5h43v-85h-81z" glyph-name="quotedblleft" horiz-adv-x="214" unicode="“"/><glyph d="M13 611v38q20 1 31 15.5t9 36.5h-43v85h81v-85q1 -41 -21.5 -65.5t-56.5 -24.5zM142 611v38q20 1 31 15.5t9 36.5h-43v85h81v-85q1 -41 -21.5 -65.5t-56.5 -24.5z" glyph-name="quotedblright" horiz-adv-x="235" unicode="”"/><glyph d="M53 -90v38q20 1 31 15.5t9 36.5h-43v85h81v-85q1 -41 -21.5 -65.5t-56.5 -24.5zM182 -90v38q20 1 31 15.5t9 36.5h-43v85h81v-85q1 -41 -21.5 -65.5t-56.5 -24.5z" glyph-name="quotedblbase" horiz-adv-x="388" unicode="„"/><glyph d="M240 287v128h119v-128h-119z" glyph-name="bullet" horiz-adv-x="600" unicode="•"/><glyph d="M71 0v85h81v-85h-81zM307 0v85h81v-85h-81zM538 0v85h81v-85h-81z" glyph-name="ellipsis" horiz-adv-x="691" unicode="…"/><glyph d="M191 458q-54 0 -92 44.5t-38 106.5t38 106.5t92 44.5t92 -44.5t38 -106.5t-38 -106.5t-92 -44.5zM69 0l516 750h59l-516 -750h-59zM191 510q32 0 55 29t23 70t-23 70t-55 29t-54.5 -29t-22.5 -70t22.5 -70t54.5 -29zM533 -10q-54 0 -92 44.5t-38 107.5q0 62 38 106.5 t92 44.5t92 -44.5t38 -106.5q0 -63 -38 -107.5t-92 -44.5zM843 -10q-54 0 -92 44.5t-38 107.5q0 62 38 106.5t92 44.5t92 -44.5t38 -106.5q0 -63 -38 -107.5t-92 -44.5zM533 43q32 0 54.5 28.5t22.5 70.5q0 41 -22.5 69.5t-54.5 28.5t-55 -28.5t-23 -69.5q0 -42 23 -70.5 t55 -28.5zM843 43q32 0 54.5 28.5t22.5 70.5q0 41 -22.5 69.5t-54.5 28.5t-55 -28.5t-23 -69.5q0 -42 23 -70.5t55 -28.5z" glyph-name="perthousand" horiz-adv-x="1026" unicode="‰"/><glyph d="M207 95l-152 184l152 184h58l-152 -184l152 -184h-58z" glyph-name="guilsinglleft" horiz-adv-x="339" unicode="‹"/><glyph d="M74 95l152 184l-152 184h58l152 -184l-152 -184h-58z" glyph-name="guilsinglright" horiz-adv-x="339" unicode="›"/><glyph d="M364 44q167 0 192 171h52q-13 -105 -76.5 -164t-167.5 -59q-116 0 -185.5 76t-77.5 202h-69v38h68v98h-68v38h69q9 125 77.5 202t184.5 77q101 0 162.5 -55t73.5 -152h-53q-23 157 -183 157q-96 0 -148 -60t-59 -169h219v-38h-220v-98h219l1 -38h-219q14 -226 208 -226z " glyph-name="Euro" horiz-adv-x="644" unicode="€"/><glyph d="M238 472v202h-86v26h198v-26h-85v-202h-27zM382 473v227h30l84 -197l82 197h30v-227h-26v170l-69 -169h-35l-71 173v-174h-25z" glyph-name="trademark" horiz-adv-x="793" unicode="™"/><glyph d="M458 -9q-177 0 -302 112.5t-125 270.5q0 160 125 273t302 113q178 0 303 -113t125 -273v-10h-692q-6 0 -6 -4v-210q0 -11 9 -24q111 -114 262 -114q81 0 153 34t123 94h61q-58 -69 -147 -109t-191 -40zM194 385h531q4 0 4 7v210q0 16 -10 25q-112 110 -260 110t-261 -113 q-10 -12 -10 -26v-206q0 -7 6 -7z" glyph-name="estimated" horiz-adv-x="918" unicode="℮"/><glyph d="M64 264v47h600v-47h-600z" glyph-name="minus" horiz-adv-x="727" unicode="−"/><glyph d="M664 336h-207l-121 -141h328v-46h-367l-124 -146h-47l125 146h-187v46h226l121 141h-347v46h386l104 121h47l-105 -121h168v-46z" glyph-name="notequal" horiz-adv-x="727" unicode="≠"/><glyph d="M676 86l-552 266v61l552 264v-53l-507 -242l507 -242v-54zM124 0v41h552v-41h-552z" glyph-name="lessequal" horiz-adv-x="799" unicode="≤"/><glyph d="M124 86v54l506 242l-506 242v53l552 -264v-61zM124 0v42h552v-42h-552z" glyph-name="greaterequal" horiz-adv-x="799" unicode="≥"/><glyph d="M545 284v-45h-42v-239h-55v87q-24 -44 -72 -71t-102 -27q-96 0 -159 70.5t-65 179.5h-54v45h56q11 98 71 159.5t148 61.5q56 0 105 -27.5t72 -72.5v295h55v-416h42zM275 452q-67 0 -111 -46t-53 -122h338q-11 76 -57.5 122t-116.5 46zM275 43q79 0 127.5 54.5t49.5 141.5 h-343q2 -87 47 -141.5t119 -54.5z" glyph-name="glyph354" horiz-adv-x="550"/><glyph d="M112 -1v701l267 1q92 -1 148.5 -57t56.5 -147q0 -78 -44.5 -130.5t-119.5 -65.5l184 -301h-67l-180 297h-190v-298h-55zM167 349h212q69 0 111 40.5t42 107.5q0 69 -42 111t-111 42h-211z" glyph-name="glyph355" horiz-adv-x="654"/><glyph d="M263 -11q-98 0 -161 73t-63 185q0 113 62 185.5t159 72.5q56 0 105 -27.5t72 -72.5v95h55v-500h-55v87q-24 -44 -72 -71t-102 -27zM264 43q80 0 128.5 55.5t48.5 143.5q0 92 -48.5 151t-128.5 59q-76 0 -121 -57t-45 -148q0 -90 45 -147t121 -57z" glyph-name="glyph356" horiz-adv-x="535"/><glyph d="M150 0q-55 0 -86.5 33t-31.5 93v574h55v-574q0 -35 17.5 -53.5t45.5 -18.5h19v-54h-19z" glyph-name="glyph357" horiz-adv-x="223"/></font>
</defs>
</svg>
