<?xml version="1.0" standalone="no"?>
<!DOCTYPE svg PUBLIC "-//W3C//DTD SVG 1.1//EN" "http://www.w3.org/Graphics/SVG/1.1/DTD/svg11.dtd">
<svg xmlns="http://www.w3.org/2000/svg"><metadata>This SVG WebFont was generated by YouWorkForThem.
Copyright Â© 2017 by Samuel Oakes. All rights reserved.</metadata><defs><font horiz-adv-x="570" id="ywftsvg"><font-face ascent="800" bbox="-623 -500 1063 1027" cap-height="700" descent="-200" font-family="" font-stretch="normal" font-weight="700" panose-1="0 0 8 0 0 0 0 0 0 0" underline-position="0" underline-thickness="0" unicode-range="U+0020-2265" units-per-em="1000" x-height="500"/><missing-glyph horiz-adv-x="600"/><glyph glyph-name=".notdef" horiz-adv-x="600"/><glyph glyph-name="glyph1" horiz-adv-x="600"/><glyph glyph-name="glyph2" horiz-adv-x="333"/><glyph glyph-name="space" horiz-adv-x="280" unicode=" "/><glyph d="M58 206l-16 544h119l-16 -544h-87zM45 0v128h119v-128h-119z" glyph-name="exclam" horiz-adv-x="245" unicode="!"/><glyph d="M79 580l-33 93v128h119v-128l-33 -93h-53zM266 580l-33 93v128h119v-128l-33 -93h-53z" glyph-name="quotedbl" horiz-adv-x="406" unicode="&quot;"/><glyph d="M178 0l23 159h-126l7 90h131l28 194h-124l8 90h129l23 169h90l-22 -169h155l22 169h90l-22 -169h101l-8 -90h-103l-31 -194h100l-7 -90h-105l-25 -159h-89l23 159h-156l-22 -159h-90zM303 249h155l32 194h-160z" glyph-name="numbersign" horiz-adv-x="750" unicode="#"/><glyph d="M286 -52v51q-94 14 -158.5 70.5t-70.5 148.5h124q13 -57 54.5 -88t108.5 -31q61 0 97.5 32t36.5 73q0 85 -128 98q-144 15 -209 69.5t-65 131.5q0 80 57.5 137.5t152.5 66.5v53h108v-60q87 -17 138.5 -73t55.5 -141h-118q-4 53 -45 83.5t-100 30.5q-58 0 -91 -28.5 t-33 -64.5q0 -40 38 -65t104 -33q142 -16 201 -69.5t59 -136.5t-57 -138t-152 -67v-50h-108z" glyph-name="dollar" horiz-adv-x="643" unicode="$"/><glyph d="M49 0l516 750h109l-516 -750h-109zM201 478q-54 0 -92 38t-38 93t38 93t92 38t92 -38t38 -93t-38 -93t-92 -38zM201 554q21 0 36 16t15 38t-15 37.5t-36 15.5t-35.5 -15.5t-14.5 -37.5q0 -23 14.5 -38.5t35.5 -15.5zM527 0q-54 0 -92 38t-38 93t38 93t92 38t92 -38 t38 -93t-38 -93t-92 -38zM527 76q21 0 36 16t15 38t-15 37.5t-36 15.5t-35.5 -15.5t-14.5 -37.5q0 -23 14.5 -38.5t35.5 -15.5z" glyph-name="percent" horiz-adv-x="723" unicode="%"/><glyph d="M281 -12q-95 0 -157 55t-62 138q0 115 126 195q-79 90 -79 163q0 72 53 122t131 50q75 0 126.5 -47t51.5 -120q0 -54 -33.5 -102.5t-90.5 -81.5l110 -106l33 59l131 1l-79 -141l172 -173h-146l-89 88q-72 -100 -198 -100zM279 433q92 52 92 109q0 31 -21.5 53t-55.5 22 q-31 0 -54.5 -22.5t-23.5 -51.5q0 -21 9 -40.5t18.5 -30.5t35.5 -39zM273 91q77 0 127 74l-143 137q-89 -46 -89 -115q0 -42 32 -69t73 -27z" glyph-name="ampersand" horiz-adv-x="743" unicode="&amp;"/><glyph d="M49 580l-33 93v128h119v-128l-33 -93h-53z" glyph-name="quotesingle" horiz-adv-x="130" unicode="'"/><glyph d="M221 -224q-75 96 -121 231t-46 285t45 285.5t122 212.5h94q-82 -92 -126 -223.5t-44 -274.5q0 -142 47 -275.5t120 -240.5h-91z" glyph-name="parenleft" horiz-adv-x="310" unicode="("/><glyph d="M27 -224q73 107 120 240.5t47 275.5q0 143 -44 274.5t-126 223.5h94q77 -77 122 -212.5t45 -285.5t-46 -285t-121 -231h-91z" glyph-name="parenright" horiz-adv-x="330" unicode=")"/><glyph d="M134 481l-62 37l58 77l-96 -12v72l96 -12l-58 77l62 37l38 -90l39 90l62 -37l-59 -77l97 12v-72l-97 12l59 -77l-62 -37l-39 90z" glyph-name="asterisk" horiz-adv-x="335" unicode="*"/><glyph d="M363 29v215h-195v84h195v214h82v-214h195v-84h-195v-215h-82z" glyph-name="plus" horiz-adv-x="807" unicode="+"/><glyph d="M26 -120v61q55 1 54 59h-60v128h119l-1 -128q0 -120 -112 -120z" glyph-name="comma" horiz-adv-x="159" unicode=","/><glyph d="M94 283v82h350v-82h-350z" glyph-name="hyphen" horiz-adv-x="537" unicode="-"/><glyph d="M30 0v128h119v-128h-119z" glyph-name="period" horiz-adv-x="179" unicode="."/><glyph d="M72 -200l440 950h104l-439 -950h-105z" glyph-name="slash" horiz-adv-x="576" unicode="/"/><glyph d="M314 -8q-124 0 -200 99.5t-76 256.5q0 159 77 260t201 101t200.5 -100.5t76.5 -258.5t-77 -258t-202 -100zM317 87q76 0 121 72t45 187q0 118 -46.5 192.5t-123.5 74.5q-76 0 -120 -70t-44 -188q0 -121 45.5 -194.5t122.5 -73.5z" glyph-name="zero" horiz-adv-x="631" unicode="0"/><glyph d="M506 0h-446v92h168v490l-168 -120v103l183 135h88v-608h175v-92z" glyph-name="one" horiz-adv-x="553" unicode="1"/><glyph d="M34 0v107l159 137q16 13 50.5 42.5t46.5 40t35.5 32.5t32 33.5t20.5 29.5t15.5 33.5t3.5 32.5q0 54 -33.5 86.5t-89.5 32.5q-54 0 -90 -34.5t-43 -92.5h-115q5 103 73.5 166t175.5 63q100 0 166.5 -61.5t66.5 -154.5q0 -26 -5 -49t-19 -47.5t-23.5 -40t-36.5 -42t-38 -37 t-47.5 -42t-47.5 -41.5l-104 -92h326v-102h-479z" glyph-name="two" horiz-adv-x="538" unicode="2"/><glyph d="M394 362q59 -21 95 -65.5t35 -110.5q-2 -87 -69.5 -143.5t-172.5 -56.5q-112 0 -182 64t-73 166h115q-2 -56 35.5 -91.5t101.5 -35.5q57 0 93 28t36 73q0 49 -38 78t-109 29h-45v108h41q64 0 100.5 28t36.5 77q0 43 -32.5 69.5t-85.5 26.5q-59 0 -92 -34t-35 -96h-114 q2 107 67.5 170.5t177.5 63.5q101 0 165 -51.5t64 -132.5q0 -60 -35 -104t-80 -60z" glyph-name="three" horiz-adv-x="550" unicode="3"/><glyph d="M461 0h-110v141h-334v93l321 466h123v-459h90v-102h-90v-139zM351 550l-221 -309h221v309z" glyph-name="four" horiz-adv-x="568" unicode="4"/><glyph d="M300 464q96 0 160 -64t64 -167q0 -105 -71.5 -173.5t-173.5 -68.5q-108 0 -175.5 61.5t-69.5 163.5h108q2 -61 38 -92.5t99 -31.5q54 0 92.5 39t40.5 94q2 58 -35.5 101.5t-93.5 43.5q-64 0 -110 -43h-115l60 373h361v-102h-278l-25 -172q56 38 124 38z" glyph-name="five" horiz-adv-x="557" unicode="5"/><glyph d="M284 1q-120 -1 -189 91.5t-69 257.5q0 88 18 154t44.5 103t63.5 59.5t69 29t66 6.5q89 -1 153 -55t75 -137l-103 -1q-12 55 -54.5 80.5t-89.5 19.5q-128 -17 -137 -200l-1 -22q62 80 166 80q93 0 160 -64.5t67 -168.5q0 -111 -71 -171.5t-168 -61.5zM282 98q52 0 88 39 t36 93q0 55 -36.5 93t-88.5 38q-53 0 -89.5 -38.5t-36.5 -93.5q0 -54 37 -92.5t90 -38.5z" glyph-name="six" horiz-adv-x="549" unicode="6"/><glyph d="M227 0h-113l295 605h-382v95h497v-93z" glyph-name="seven" horiz-adv-x="551" unicode="7"/><glyph d="M273 -11q-112 0 -175.5 60t-63.5 149q0 60 33.5 108t87.5 68q-46 15 -76 57t-30 95q0 81 61 131.5t159 50.5q100 0 164 -51t64 -132q0 -59 -34.5 -99.5t-74.5 -51.5q56 -19 90 -68.5t34 -109.5q0 -87 -64 -147t-175 -60zM272 420q48 0 81 29t33 72q0 39 -33 68t-83 29 q-49 0 -80 -28.5t-31 -67.5q0 -44 32 -73t81 -29zM272 83q55 0 90.5 32.5t35.5 80.5q0 50 -37 84.5t-91 34.5t-88 -33.5t-34 -84.5q0 -50 34 -82t90 -32z" glyph-name="eight" horiz-adv-x="546" unicode="8"/><glyph d="M265 702q120 1 189 -91.5t69 -257.5q0 -88 -18 -154t-44.5 -103t-63.5 -59.5t-69 -29t-66 -6.5q-89 1 -153 55t-75 137l103 1q12 -55 54.5 -80.5t89.5 -19.5q128 17 137 200l1 22q-62 -80 -166 -80q-93 0 -160 64.5t-67 168.5q0 111 71 171.5t168 61.5zM267 605 q-52 0 -88 -39t-36 -93q0 -55 36.5 -93t88.5 -38q53 0 89.5 38.5t36.5 93.5q0 54 -37 92.5t-90 38.5z" glyph-name="nine" horiz-adv-x="549" unicode="9"/><glyph d="M30 372v128h119v-128h-119zM31 0v128h119v-128h-119z" glyph-name="colon" horiz-adv-x="235" unicode=":"/><glyph d="M80 372v128h119l1 -128h-120zM86 -120v61q55 1 54 59h-60v128h119l-1 -128q0 -120 -112 -120z" glyph-name="semicolon" horiz-adv-x="295" unicode=";"/><glyph d="M646 26l-552 279v61l552 277v-92l-445 -216l445 -217v-92z" glyph-name="less" horiz-adv-x="739" unicode="&lt;"/><glyph d="M64 316v86h600v-86h-600zM64 129v86h600v-86h-600z" glyph-name="equal" horiz-adv-x="727" unicode="="/><glyph d="M94 26v92l445 217l-445 216v92l552 -277v-61z" glyph-name="greater" horiz-adv-x="739" unicode=">"/><glyph d="M194 179v52q0 57 19 100t46 68.5t53.5 47.5t45.5 48t19 58q0 49 -37.5 77.5t-83.5 28.5q-47 0 -86.5 -30.5t-40.5 -96.5h-99q-4 93 63 155t160 62q98 0 161.5 -59t63.5 -137q0 -44 -18.5 -79t-45 -59t-52.5 -47.5t-44.5 -56t-18.5 -71.5v-61h-105zM189 0v128h119v-128 h-119z" glyph-name="question" horiz-adv-x="546" unicode="?"/><glyph d="M336 -25q-138 0 -235 88t-97 220q0 141 100 242t240 101q137 0 227 -86t90 -216q0 -86 -50.5 -143.5t-118.5 -57.5q-58 0 -86 37q-43 -41 -97 -41q-62 0 -100 41t-38 107q0 77 46 132t110 55q22 0 43.5 -10t30.5 -27l1 31h95l-15 -134l-7 -63q-6 -42 17 -42q29 0 54 31.5 t25 82.5q0 97 -62.5 156.5t-164.5 59.5q-105 0 -176 -73.5t-71 -181.5q0 -98 69.5 -160t169.5 -62h269v-87h-269zM316 205q29 0 50 29t21 68q0 65 -51 65q-29 0 -49 -29t-20 -71q0 -62 49 -62z" glyph-name="at" horiz-adv-x="677" unicode="@"/><glyph d="M145 0l-125 1l268 699h112l268 -700h-125l-66 172h-267zM240 272h207l-103 291z" glyph-name="A" horiz-adv-x="688" unicode="A"/><glyph d="M75 -2v702h289q88 0 145 -48.5t57 -132.5q0 -49 -25.5 -85.5t-63.5 -54.5q53 -20 87.5 -71t33.5 -113q-2 -91 -57 -144t-149 -53h-317zM182 411h181q36 0 62 26.5t26 65.5q0 43 -24 70.5t-69 27.5h-176v-190zM184 104h187q46 0 75 28t29 75q0 45 -29.5 75.5t-74.5 30.5 h-187v-209z" glyph-name="B" horiz-adv-x="633" unicode="B"/><glyph d="M367 -5q-138 0 -233 100.5t-94 251.5q1 156 94.5 258t239.5 102q126 0 207.5 -71.5t97.5 -182.5h-126q-11 60 -60.5 102.5t-123.5 42.5q-93 0 -149.5 -72.5t-56.5 -179.5q0 -104 56 -173.5t146 -69.5q76 0 126 44.5t62 103.5h126q-18 -110 -100.5 -183t-211.5 -73z" glyph-name="C" horiz-adv-x="714" unicode="C"/><glyph d="M75 -2v702l251 2q143 2 238 -96.5t95 -250.5q0 -154 -92.5 -254t-230.5 -101zM179 104l143 2q96 2 161 69.5t65 175.5q0 109 -63.5 176.5t-158.5 65.5l-147 -2v-487z" glyph-name="D" horiz-adv-x="699" unicode="D"/><glyph d="M75 0v700h459v-107h-352v-187h331v-103h-331v-196h352v-107h-459z" glyph-name="E" horiz-adv-x="564" unicode="E"/><glyph d="M75 0v700h449v-103h-342v-196h321v-93h-321v-308h-107z" glyph-name="F" horiz-adv-x="524" unicode="F"/><glyph d="M364 -5q-140 0 -232.5 100t-91.5 252q1 156 94.5 258t239.5 102q126 0 207.5 -71.5t97.5 -182.5h-126q-11 60 -60.5 102.5t-123.5 42.5q-93 0 -149.5 -72.5t-56.5 -179.5q0 -104 56.5 -174t146.5 -69q69 1 124 38.5t74 114.5h-200v104h315v-360h-96l-8 103 q-33 -52 -89.5 -80t-121.5 -28z" glyph-name="G" horiz-adv-x="749" unicode="G"/><glyph d="M75 0v700h117v-292h329v292h117v-700h-117v312h-329v-312h-117z" glyph-name="H" horiz-adv-x="713" unicode="H"/><glyph d="M80 0v700h115v-700h-115z" glyph-name="I" horiz-adv-x="275" unicode="I"/><glyph d="M234 -8q-99 0 -161.5 60.5t-62.5 160.5v55h105v-51q0 -54 33 -87.5t86 -33.5q50 0 81 35t31 98v471h113v-475q0 -107 -65 -170t-160 -63z" glyph-name="J" horiz-adv-x="524" unicode="J"/><glyph d="M75 0v700h105v-344l310 344h134l-295 -326l306 -374h-140l-242 296l-73 -82v-214h-105z" glyph-name="K" horiz-adv-x="640" unicode="K"/><glyph d="M75 0v700h116v-590h310v-110h-426z" glyph-name="L" horiz-adv-x="516" unicode="L"/><glyph d="M75 0v700h136l219 -547l213 547h131v-700h-106v500l-193 -500h-93l-196 500v-500h-111z" glyph-name="M" horiz-adv-x="849" unicode="M"/><glyph d="M495 0l-315 535v-535h-105v700h135l325 -552v552h105v-701z" glyph-name="N" horiz-adv-x="715" unicode="N"/><glyph d="M372 -10q-140 0 -236 102t-96 258q0 155 96 256.5t236 101.5t236 -102t96 -258q0 -155 -96 -256.5t-236 -101.5zM371 97q96 0 157 70t61 178q0 112 -61 185t-156 73q-94 0 -154.5 -72.5t-60.5 -183.5q0 -108 60.5 -179t153.5 -71z" glyph-name="O" horiz-adv-x="744" unicode="O"/><glyph d="M75 -1v701l300 1q91 0 148 -61t57 -153q0 -91 -58.5 -150.5t-152.5 -59.5h-186v-278h-108zM183 372h164q54 0 89 30t35 86t-35 87t-89 31h-164v-234z" glyph-name="P" horiz-adv-x="600" unicode="P"/><glyph d="M661 -40l-109 81q-79 -51 -180 -51q-140 0 -236 102t-96 258q0 155 96 256.5t236 101.5t236 -102t96 -258q0 -146 -81 -244l95 -70zM371 96q45 0 80 20l-83 61l57 73l105 -78q59 69 59 173q0 112 -61 185t-156 73q-94 0 -154.5 -72.5t-60.5 -183.5q0 -108 60.5 -179.5 t153.5 -71.5z" glyph-name="Q" horiz-adv-x="758" unicode="Q"/><glyph d="M75 -1v701l302 1q91 0 148 -55.5t57 -137.5q0 -65 -31.5 -111.5t-74.5 -61.5q45 -14 67 -54t27 -107q2 -24 4 -60t3.5 -49t6 -31t13.5 -34h-124q-4 10 -7 21t-5 26.5t-2.5 26t-2 35.5t-2.5 40q-3 42 -8.5 65.5t-20 44t-42.5 29t-73 8.5h-125v-297h-110zM185 391h164 q56 0 90 26t34 81t-34 81.5t-90 26.5h-164v-215z" glyph-name="R" horiz-adv-x="647" unicode="R"/><glyph d="M322 -7q-112 0 -195.5 58t-91.5 165h124q13 -57 54.5 -88t108.5 -31q61 0 97.5 32t36.5 73q0 85 -128 98q-144 15 -209 69.5t-65 131.5q0 86 71 145.5t179 59.5q118 0 187.5 -59t74.5 -163h-118q-4 53 -45 83.5t-100 30.5q-58 0 -91 -28.5t-33 -64.5q0 -40 38 -65 t104 -33q142 -16 201 -69.5t59 -136.5q0 -95 -72.5 -151.5t-186.5 -56.5z" glyph-name="S" horiz-adv-x="616" unicode="S"/><glyph d="M242 0l1 597h-242l-1 103h590l1 -103l-241 1l-1 -598h-107z" glyph-name="T" horiz-adv-x="591" unicode="T"/><glyph d="M349 -8q-129 0 -206.5 76t-77.5 205v427h110v-427q0 -85 47 -131.5t127 -46.5q79 0 126.5 46.5t47.5 131.5v427h110v-427q0 -129 -77.5 -205t-206.5 -76z" glyph-name="U" horiz-adv-x="698" unicode="U"/><glyph d="M272 0l-262 700h113l201 -552l201 552h112l-262 -700h-103z" glyph-name="V" horiz-adv-x="647" unicode="V"/><glyph d="M227 0l-212 700h113l151 -543l146 543h104l155 -543l141 543h112l-202 -700h-103l-155 535l-147 -535h-103z" glyph-name="W" horiz-adv-x="952" unicode="W"/><glyph d="M20 0l260 350l-260 350h137l189 -260l188 260h137l-260 -350l260 -350h-137l-188 260l-189 -260h-137z" glyph-name="X" horiz-adv-x="691" unicode="X"/><glyph d="M268 0v282l-258 418h121l191 -318l201 318h111l-258 -418v-282h-108z" glyph-name="Y" horiz-adv-x="644" unicode="Y"/><glyph d="M40 0v109l434 482h-428v109h563v-109l-426 -482h420v-109h-563z" glyph-name="Z" horiz-adv-x="639" unicode="Z"/><glyph d="M83 -317v1134h187v-82h-99v-970h99v-82h-187z" glyph-name="bracketleft" horiz-adv-x="270" unicode="["/><glyph d="M511 -200l-439 950h104l440 -950h-105z" glyph-name="backslash" horiz-adv-x="576" unicode="\"/><glyph d="M83 -317v82h99v970h-99v82h187v-1134h-187z" glyph-name="bracketright" horiz-adv-x="270" unicode="]"/><glyph d="M94 -88v88h500v-88h-500z" glyph-name="underscore" horiz-adv-x="687" unicode="_"/><glyph d="M169 575l-132 135h137l101 -135h-106z" glyph-name="grave" horiz-adv-x="330" unicode="`"/><glyph d="M199 -10q-70 0 -119.5 41t-49.5 110q0 72 44 107q47 37 138 45q37 3 50 5t39 8.5t36 18.5t10 30q0 25 -22.5 42.5t-59.5 17.5q-48 0 -74.5 -24.5t-30.5 -56.5l-112 -1q7 77 65 128t147 51q93 0 145.5 -48.5t52.5 -125.5v-338h-111v59q-26 -33 -66 -51t-82 -18zM217 82 q47 -3 88 25.5t42 83.5l1 45q-29 -16 -116 -23q-87 -8 -87 -65q0 -27 19 -45.5t53 -20.5z" glyph-name="a" horiz-adv-x="513" unicode="a"/><glyph d="M325 -11q-59 0 -102 26.5t-57 53.5v-69h-101v700h101v-271q55 76 162 76q90 0 158 -69t68 -189q0 -121 -70.5 -189.5t-158.5 -68.5zM305 88q60 0 98 46.5t38 119.5q0 68 -38 111t-98 43q-61 0 -99.5 -46t-38.5 -118q0 -68 38.5 -112t99.5 -44z" glyph-name="b" horiz-adv-x="584" unicode="b"/><glyph d="M270 -7q-106 0 -173 72t-67 185q0 114 68.5 187t175.5 73q87 0 148.5 -50t71.5 -129h-112q-9 37 -38.5 62.5t-73.5 25.5q-54 0 -90.5 -44t-36.5 -118q0 -78 36.5 -124t92.5 -46q45 0 74 25.5t36 62.5h112q-10 -80 -73 -131t-151 -51z" glyph-name="c" horiz-adv-x="525" unicode="c"/><glyph d="M259 -11q-88 0 -158.5 68.5t-70.5 189.5q0 120 68 189t158 69q107 0 162 -76v271h101v-700h-101v69q-14 -27 -57 -53.5t-102 -26.5zM279 88q61 0 99.5 44t38.5 112q0 72 -38.5 118t-99.5 46q-60 0 -98 -43t-38 -111q0 -73 38 -119.5t98 -46.5z" glyph-name="d" horiz-adv-x="584" unicode="d"/><glyph d="M271 -11q-110 0 -175.5 68.5t-65.5 188.5q0 116 66 188t172 72q113 0 174 -82.5t52 -209.5h-354v-1q0 -61 35.5 -96.5t95.5 -35.5q88 0 115 77h100q-12 -75 -69.5 -122t-145.5 -47zM143 307h239q-2 47 -34.5 77t-82.5 30t-84.5 -30t-37.5 -77z" glyph-name="e" horiz-adv-x="525" unicode="e"/><glyph d="M78 0v410h-78v90h78v67q0 58 38.5 95.5t98.5 37.5h95l1 -94h-68q-36 0 -48.5 -14t-12.5 -52v-40h128v-90h-128v-410h-104z" glyph-name="f" horiz-adv-x="311" unicode="f"/><glyph d="M274 -209q-101 0 -162.5 52t-65.5 125l106 -1q7 -29 25 -48t41.5 -26t35.5 -8.5t23 -1.5q68 0 109.5 40.5t41.5 125.5v46q-23 -45 -72 -72.5t-105 -27.5q-103 0 -162 71.5t-59 186.5q0 112 63 185t161 73q54 0 102 -27t72 -71v87h103v-451q0 -128 -70 -193t-187 -65z M280 92q61 0 99.5 46t38.5 118q0 68 -38.5 112t-99.5 44q-60 0 -98 -46.5t-38 -119.5q0 -68 38 -111t98 -43z" glyph-name="g" horiz-adv-x="591" unicode="g"/><glyph d="M65 0v700h106v-263q20 28 58 52t92 24q23 0 46.5 -5t50 -19t46.5 -36t33 -60t13 -86v-307h-115v295q0 63 -27 93t-72 30q-52 0 -88.5 -45.5t-36.5 -120.5v-252h-106z" glyph-name="h" unicode="h"/><glyph d="M60 572v128h119v-128h-119zM64 0v500h112v-500h-112z" glyph-name="i" horiz-adv-x="239" unicode="i"/><glyph d="M67 572v128h119v-128h-119zM-20 -177v101h23q33 0 52.5 19.5t19.5 59.5v497h106v-517q0 -74 -44.5 -117t-114.5 -43h-42z" glyph-name="j" horiz-adv-x="241" unicode="j"/><glyph d="M65 0v700h105v-393l179 193h132l-188 -200l209 -299l-119 -1l-157 225l-56 -59v-166h-105z" glyph-name="k" horiz-adv-x="512" unicode="k"/><glyph d="M65 0v700h112v-700h-112z" glyph-name="l" horiz-adv-x="242" unicode="l"/><glyph d="M65 0v500h106v-63q53 76 140 76q106 0 161 -95q56 95 165 95q23 0 46.5 -5t50.5 -19t47.5 -36t34 -60t13.5 -86v-307h-115v295q0 63 -27 93t-72 30q-50 0 -82.5 -45t-32.5 -121v-252h-115v295q0 63 -27 93t-72 30q-50 0 -82.5 -45t-32.5 -121v-252h-106z" glyph-name="m" horiz-adv-x="889" unicode="m"/><glyph d="M65 0v500h106v-63q20 28 58 52t92 24q23 0 46.5 -5t50 -19t46.5 -36t33 -60t13 -86v-307h-115v295q0 63 -27 93t-72 30q-52 0 -88.5 -45.5t-36.5 -120.5v-252h-106z" glyph-name="n" unicode="n"/><glyph d="M272 -5q-103 0 -172.5 72t-69.5 183q0 112 69.5 184.5t172.5 72.5q102 0 171.5 -72.5t69.5 -184.5q0 -111 -69.5 -183t-171.5 -72zM271 94q64 0 100.5 43.5t36.5 111.5q0 70 -36 114t-100 44q-63 0 -99 -44t-36 -113q0 -68 35.5 -112t98.5 -44z" glyph-name="o" horiz-adv-x="543" unicode="o"/><glyph d="M65 -200v700h101v-69q14 27 57 53.5t102 26.5q88 0 158.5 -68.5t70.5 -189.5q0 -120 -68 -189t-158 -69q-107 0 -162 76v-271h-101zM305 92q60 0 98 43t38 111q0 73 -38 119.5t-98 46.5q-61 0 -99.5 -44t-38.5 -112q0 -72 38.5 -118t99.5 -46z" glyph-name="p" horiz-adv-x="584" unicode="p"/><glyph d="M418 -200v271q-55 -76 -162 -76q-90 0 -158 69t-68 189q0 121 70.5 189.5t158.5 68.5q59 0 102 -26.5t57 -53.5v69h101v-700h-101zM279 92q61 0 99.5 46t38.5 118q0 68 -38.5 112t-99.5 44q-60 0 -98 -46.5t-38 -119.5q0 -68 38 -111t98 -43z" glyph-name="q" horiz-adv-x="584" unicode="q"/><glyph d="M65 0v500h103v-61q7 14 19 27t45 27.5t76 14.5h23v-111h-17q-146 2 -146 -144v-253h-103z" glyph-name="r" horiz-adv-x="331" unicode="r"/><glyph d="M240 -11q-89 0 -150 44.5t-65 126.5h102q8 -38 38 -59.5t71 -21.5q39 0 63.5 20.5t24.5 51.5q0 51 -92 64q-62 9 -103 26t-59 40t-24 41.5t-6 41.5q0 59 52 102t135 43q77 0 133.5 -42t63.5 -128h-99q-5 31 -24 49.5t-36 23t-36 4.5q-33 0 -57 -13.5t-24 -39.5 q0 -49 85 -60q111 -14 156.5 -52t45.5 -100q0 -74 -59.5 -118t-135.5 -44z" glyph-name="s" horiz-adv-x="460" unicode="s"/><glyph d="M205 0q-60 0 -98.5 37.5t-38.5 95.5v277h-78v90h78v160h104v-160h128v-90h-128v-250q0 -38 12.5 -52t48.5 -14h68l-1 -94h-95z" glyph-name="t" horiz-adv-x="311" unicode="t"/><glyph d="M249 -13q-23 0 -46.5 5t-50 19t-46.5 36t-33 60t-13 86v307h115v-295q0 -63 27 -93t72 -30q52 0 88.5 45.5t36.5 120.5v252h106v-500h-106v63q-20 -28 -58 -52t-92 -24z" glyph-name="u" unicode="u"/><glyph d="M205 0l-205 500h114l134 -352l132 352h116l-206 -500h-85z" glyph-name="v" horiz-adv-x="496" unicode="v"/><glyph d="M170 0l-165 500h114l104 -352l102 352h84l104 -352l102 352h116l-166 -500h-105l-92 309l-93 -309h-105z" glyph-name="w" horiz-adv-x="736" unicode="w"/><glyph d="M10 0l186 250l-186 250h126l122 -166l119 166h126l-185 -250l185 -250h-126l-120 166l-121 -166h-126z" glyph-name="x" horiz-adv-x="513" unicode="x"/><glyph d="M36 -200l-1 97h49q61 0 88 70l23 64l-195 469h115l135 -342l125 342h115l-216 -561q-55 -139 -179 -139h-59z" glyph-name="y" horiz-adv-x="490" unicode="y"/><glyph d="M30 0v98l277 305h-277v98l407 -1v-97l-277 -305h277v-98h-407z" glyph-name="z" horiz-adv-x="477" unicode="z"/><glyph d="M242 -310q-43 0 -77.5 38t-34.5 90v237q0 73 -13 104.5t-62 55.5v69q49 25 62 57t13 102v237q0 56 33.5 91.5t77.5 35.5h25v-81q-31 0 -41.5 -13t-10.5 -43v-242q0 -64 -14 -106t-59 -73q45 -30 59 -72.5t14 -106.5v-245q0 -29 11.5 -41t40.5 -12v-82h-24z" glyph-name="braceleft" horiz-adv-x="319" unicode="{"/><glyph d="M101 -150v900h85v-900h-85z" glyph-name="bar" horiz-adv-x="287" unicode="|"/><glyph d="M55 -310v81q31 0 41.5 13t10.5 43v242q0 64 14 106t59 73q-45 30 -59 72.5t-14 106.5v245q0 29 -11.5 41t-40.5 12v82h24q43 0 77.5 -38t34.5 -90v-237q0 -73 13 -104.5t62 -55.5v-69q-49 -25 -62 -57t-13 -102v-237q0 -56 -33.5 -91.5t-77.5 -35.5h-25z" glyph-name="braceright" horiz-adv-x="319" unicode="}"/><glyph d="M82 419v128h119v-128h-119zM85 -203l16 544h87l16 -544h-119z" glyph-name="exclamdown" horiz-adv-x="285" unicode="¡"/><glyph d="M228 0v76q-89 14 -143.5 83.5t-54.5 170.5t54.5 171t144.5 85v78h89v-78q71 -12 119.5 -59.5t56.5 -115.5h-112q-9 37 -38.5 62.5t-73.5 25.5q-54 0 -90.5 -44t-36.5 -118q0 -78 36.5 -124t92.5 -46q45 0 74 25.5t36 62.5h112q-9 -69 -57.5 -117t-119.5 -61v-77h-89z" glyph-name="cent" horiz-adv-x="536" unicode="¢"/><glyph d="M556 138q-4 -68 -52.5 -106.5t-107.5 -38.5q-44 0 -105 32.5t-91 32.5q-23 0 -42.5 -14t-20.5 -44h-92q-8 106 88 144q14 34 15 66q2 50 -13 91h-80v89l64 -1q-27 94 -26 142q2 85 64 141t154 56q89 0 154 -52t72 -139h-102q-8 57 -47 80t-82 22q-50 -1 -84.5 -30.5 t-35.5 -79.5q-1 -29 25 -139h211v-89h-188q11 -64 10 -93t-10 -66q23 -4 77 -30t74 -26q31 0 48 15.5t20 36.5h103z" glyph-name="sterling" horiz-adv-x="600" unicode="£"/><glyph d="M302 0v109h-204v88h204v52h-204v88h170l-224 363h121l191 -318l201 318h111l-224 -363h170v-88h-204v-52h204v-88h-204v-109h-108z" glyph-name="yen" horiz-adv-x="663" unicode="¥"/><glyph d="M71 390v360h95v-360h-95zM71 -150v360h95v-360h-95z" glyph-name="brokenbar" horiz-adv-x="287" unicode="¦"/><glyph d="M59 591v128h119v-128h-119zM254 591v128h119v-128h-119z" glyph-name="dieresis" horiz-adv-x="53" unicode="¨"/><glyph d="M439 -18q-162 0 -277 115t-115 277t115 277t277 115t277 -115t115 -277t-115 -277t-277 -115zM439 37q141 0 239.5 98.5t98.5 238.5t-98.5 238.5t-239.5 98.5q-140 0 -238.5 -98.5t-98.5 -238.5t98.5 -238.5t238.5 -98.5zM439 132q-95 0 -159 68.5t-63 169.5 q1 106 64.5 175t161.5 69q85 0 140 -47.5t67 -121.5h-82q-9 41 -43.5 70t-84.5 29q-63 0 -103 -49t-40 -125q0 -74 39.5 -121t100.5 -47q52 0 87 30t44 71h82q-14 -74 -69 -122.5t-142 -48.5z" glyph-name="copyright" horiz-adv-x="876" unicode="©"/><glyph d="M227 95l-152 184l152 184h98l-152 -184l152 -184h-98zM439 95l-152 184l152 184h99l-152 -184l152 -184h-99z" glyph-name="guillemotleft" horiz-adv-x="612" unicode="«"/><glyph d="M94 216v78h350v-78h-350z" glyph-name="uni00AD" horiz-adv-x="590" unicode="­"/><glyph d="M438 -17q-162 0 -277 115t-115 277t115 277t277 115t277 -115t115 -277t-115 -277t-277 -115zM438 38q141 0 239.5 98.5t98.5 238.5t-98.5 238.5t-239.5 98.5q-140 0 -238.5 -98.5t-98.5 -238.5t98.5 -238.5t238.5 -98.5zM542 156q-7 18 -12 95q-3 52 -20 73t-72 21h-79 v-190h-70v447l192 1q58 0 94.5 -35.5t36.5 -87.5q0 -42 -20 -71.5t-48 -39.5q54 -16 60 -102q1 -14 2 -32t1.5 -26.5t2 -19t4.5 -18t7 -15.5h-79zM359 405h104q79 0 79 68q0 69 -79 69h-104v-137z" glyph-name="registered" horiz-adv-x="876" unicode="®"/><glyph d="M34 587v86h310v-86h-310z" glyph-name="macron" horiz-adv-x="67" unicode="¯"/><glyph d="M248 492q-55 0 -94.5 39.5t-39.5 94.5q0 56 39 95t95 39q55 0 94.5 -39.5t39.5 -94.5t-39.5 -94.5t-94.5 -39.5zM248 572q25 0 39.5 14.5t14.5 39.5t-14.5 39.5t-39.5 14.5t-39.5 -14.5t-14.5 -39.5t14.5 -39.5t39.5 -14.5z" glyph-name="degree" horiz-adv-x="495" unicode="°"/><glyph d="M141 575h-106l101 135h137z" glyph-name="acute" horiz-adv-x="330" unicode="´"/><glyph d="M84 241v128h119v-128h-119z" glyph-name="periodcentered" horiz-adv-x="270" unicode="·"/><glyph d="M131 -260q-37 0 -71.5 21.5t-45.5 52.5l63 22q8 -13 23.5 -22t30.5 -9q18 0 30 13t12 31q0 29 -25 37t-57 -8l-52 30l50 92h67l-34 -60q20 4 40 1q35 -5 56.5 -30.5t21.5 -61.5q0 -46 -31.5 -77.5t-77.5 -31.5z" glyph-name="cedilla" horiz-adv-x="53" unicode="¸"/><glyph d="M74 95l152 184l-152 184h98l152 -184l-152 -184h-98zM286 95l152 184l-152 184h99l152 -184l-152 -184h-99z" glyph-name="guillemotright" horiz-adv-x="612" unicode="»"/><glyph d="M222 421v128h119v-128h-119zM275 -200q-98 0 -161.5 59t-63.5 137q0 44 18.5 79t45 59t52.5 47.5t44.5 56t18.5 71.5v61h105v-52q0 -57 -19 -100t-45.5 -68.5t-53.5 -47.5t-46 -48t-19 -58q0 -49 37.5 -77.5t83.5 -28.5q47 0 86.5 30.5t40.5 96.5h99q4 -93 -63 -155 t-160 -62z" glyph-name="questiondown" horiz-adv-x="544" unicode="¿"/><glyph d="M294 740l-132 135h137l101 -135h-106zM145 0l-125 1l268 699h112l268 -700h-125l-66 172h-267zM240 272h207l-103 291z" glyph-name="Agrave" horiz-adv-x="688" unicode="À"/><glyph d="M383 739h-106l101 135h137zM145 0l-125 1l268 699h112l268 -700h-125l-66 172h-267zM240 272h207l-103 291z" glyph-name="Aacute" horiz-adv-x="688" unicode="Á"/><glyph d="M258 910h151l107 -171h-111l-71 108l-71 -108h-110zM145 0l-125 1l268 699h112l268 -700h-125l-66 172h-267zM240 272h207l-103 291z" glyph-name="Acircumflex" horiz-adv-x="688" unicode="Â"/><glyph d="M409 741q-60 0 -101 58q-12 19 -27 19q-22 0 -25 -29q0 -19 7 -40h-85q-4 16 -4 33q-2 53 27 86t76 33q63 0 102 -58q10 -19 27 -19q15 0 21.5 14t1.5 37q-1 4 -5 17h85q2 -8 2 -12q10 -60 -19 -99.5t-83 -39.5zM145 0l-125 1l268 699h112l268 -700h-125l-66 172h-267z M240 272h207l-103 291z" glyph-name="Atilde" horiz-adv-x="688" unicode="Ã"/><glyph d="M185 756v128h119v-128h-119zM380 756v128h119v-128h-119zM145 0l-125 1l268 699h112l268 -700h-125l-66 172h-267zM240 272h207l-103 291z" glyph-name="Adieresis" horiz-adv-x="688" unicode="Ä"/><glyph d="M344 740q-38 0 -65 27t-27 65t27 65t65 27q37 0 63.5 -27t27.5 -65q1 -37 -26 -64.5t-65 -27.5zM344 796q36 0 36 36q0 38 -36 38q-17 0 -27 -10.5t-10 -27.5q0 -36 37 -36zM145 0l-125 1l268 699h112l268 -700h-125l-66 172h-267zM240 272h207l-103 291z" glyph-name="Aring" horiz-adv-x="688" unicode="Å"/><glyph d="M888 593h-352v-187h331v-103h-331v-196h352v-107h-459v172h-228l-65 -172l-116 1l259 699h609v-107zM239 282h190v308h-80z" glyph-name="AE" horiz-adv-x="918" unicode="Æ"/><glyph d="M365 103q76 0 126 44.5t62 103.5h126q-17 -107 -96 -179.5t-203 -76.5l-13 -22q20 4 40 1q35 -6 56.5 -31t21.5 -61q0 -46 -31.5 -77.5t-77.5 -31.5q-37 0 -71.5 21.5t-45.5 52.5l63 22q8 -13 23.5 -22t30.5 -9q18 0 30 13t12 31q0 29 -25 37t-57 -8l-52 30l32 58 q-120 19 -198.5 115.5t-77.5 232.5q1 156 94.5 258t239.5 102q126 0 207.5 -71.5t97.5 -182.5h-126q-11 60 -60.5 102.5t-123.5 42.5q-93 0 -149.5 -72.5t-56.5 -179.5q0 -104 56 -173.5t146 -69.5z" glyph-name="Ccedilla" horiz-adv-x="714" unicode="Ç"/><glyph d="M259 740l-132 135h137l101 -135h-106zM75 0v700h459v-107h-352v-187h331v-103h-331v-196h352v-107h-459z" glyph-name="Egrave" horiz-adv-x="564" unicode="È"/><glyph d="M348 739h-106l101 135h137zM75 0v700h459v-107h-352v-187h331v-103h-331v-196h352v-107h-459z" glyph-name="Eacute" horiz-adv-x="564" unicode="É"/><glyph d="M223 910h151l107 -171h-111l-71 108l-71 -108h-110zM75 0v700h459v-107h-352v-187h331v-103h-331v-196h352v-107h-459z" glyph-name="Ecircumflex" horiz-adv-x="564" unicode="Ê"/><glyph d="M150 756v128h119v-128h-119zM345 756v128h119v-128h-119zM75 0v700h459v-107h-352v-187h331v-103h-331v-196h352v-107h-459z" glyph-name="Edieresis" horiz-adv-x="564" unicode="Ë"/><glyph d="M88 740l-132 135h137l101 -135h-106zM80 0v700h115v-700h-115z" glyph-name="Igrave" horiz-adv-x="275" unicode="Ì"/><glyph d="M177 739h-106l101 135h137zM80 0v700h115v-700h-115z" glyph-name="Iacute" horiz-adv-x="275" unicode="Í"/><glyph d="M52 910h151l107 -171h-111l-71 108l-71 -108h-110zM80 0v700h115v-700h-115z" glyph-name="Icircumflex" horiz-adv-x="278" unicode="Î"/><glyph d="M-21 756v128h119v-128h-119zM174 756v128h119v-128h-119zM80 0v700h115v-700h-115z" glyph-name="Idieresis" horiz-adv-x="281" unicode="Ï"/><glyph d="M402 702q143 2 238 -96.5t95 -250.5q0 -154 -92.5 -254t-230.5 -101l-261 -2v309h-76v101h76v292zM398 106q96 2 161 69.5t65 175.5q0 109 -63.5 176.5t-158.5 65.5l-147 -2v-183h66v-101h-66v-203z" glyph-name="Eth" horiz-adv-x="775" unicode="Ð"/><glyph d="M423 741q-60 0 -101 58q-12 19 -27 19q-22 0 -25 -29q0 -19 7 -40h-85q-4 16 -4 33q-2 53 27 86t76 33q63 0 102 -58q10 -19 27 -19q15 0 21.5 14t1.5 37q-1 4 -5 17h85q2 -8 2 -12q10 -60 -19 -99.5t-83 -39.5zM495 0l-315 535v-535h-105v700h135l325 -552v552h105v-701 z" glyph-name="Ntilde" horiz-adv-x="715" unicode="Ñ"/><glyph d="M322 740l-132 135h137l101 -135h-106zM372 -10q-140 0 -236 102t-96 258q0 155 96 256.5t236 101.5t236 -102t96 -258q0 -155 -96 -256.5t-236 -101.5zM371 97q96 0 157 70t61 178q0 112 -61 185t-156 73q-94 0 -154.5 -72.5t-60.5 -183.5q0 -108 60.5 -179t153.5 -71z " glyph-name="Ograve" horiz-adv-x="744" unicode="Ò"/><glyph d="M411 739h-106l101 135h137zM372 -10q-140 0 -236 102t-96 258q0 155 96 256.5t236 101.5t236 -102t96 -258q0 -155 -96 -256.5t-236 -101.5zM371 97q96 0 157 70t61 178q0 112 -61 185t-156 73q-94 0 -154.5 -72.5t-60.5 -183.5q0 -108 60.5 -179t153.5 -71z" glyph-name="Oacute" horiz-adv-x="744" unicode="Ó"/><glyph d="M286 910h151l107 -171h-111l-71 108l-71 -108h-110zM372 -10q-140 0 -236 102t-96 258q0 155 96 256.5t236 101.5t236 -102t96 -258q0 -155 -96 -256.5t-236 -101.5zM371 97q96 0 157 70t61 178q0 112 -61 185t-156 73q-94 0 -154.5 -72.5t-60.5 -183.5q0 -108 60.5 -179 t153.5 -71z" glyph-name="Ocircumflex" horiz-adv-x="744" unicode="Ô"/><glyph d="M437 741q-60 0 -101 58q-12 19 -27 19q-22 0 -25 -29q0 -19 7 -40h-85q-4 16 -4 33q-2 53 27 86t76 33q63 0 102 -58q10 -19 27 -19q15 0 21.5 14t1.5 37q-1 4 -5 17h85q2 -8 2 -12q10 -60 -19 -99.5t-83 -39.5zM372 -10q-140 0 -236 102t-96 258q0 155 96 256.5 t236 101.5t236 -102t96 -258q0 -155 -96 -256.5t-236 -101.5zM371 97q96 0 157 70t61 178q0 112 -61 185t-156 73q-94 0 -154.5 -72.5t-60.5 -183.5q0 -108 60.5 -179t153.5 -71z" glyph-name="Otilde" horiz-adv-x="744" unicode="Õ"/><glyph d="M213 756v128h119v-128h-119zM408 756v128h119v-128h-119zM372 -10q-140 0 -236 102t-96 258q0 155 96 256.5t236 101.5t236 -102t96 -258q0 -155 -96 -256.5t-236 -101.5zM371 97q96 0 157 70t61 178q0 112 -61 185t-156 73q-94 0 -154.5 -72.5t-60.5 -183.5 q0 -108 60.5 -179t153.5 -71z" glyph-name="Odieresis" horiz-adv-x="744" unicode="Ö"/><glyph d="M199 52l-77 78l180 180l-180 181l77 77l181 -181l181 181l77 -77l-181 -181l181 -180l-77 -78l-181 181z" glyph-name="multiply" horiz-adv-x="731" unicode="×"/><glyph d="M711 700l-91 -108q84 -100 84 -244q0 -155 -96 -256.5t-236 -101.5q-113 0 -202 70l-51 -60h-119l107 127q-67 96 -67 223q0 155 96 256.5t236 101.5q99 0 181 -55l39 47h119zM157 347q0 -71 28 -129l297 352q-49 33 -110 33q-94 0 -154.5 -72.5t-60.5 -183.5zM589 345 q0 92 -43 160l-305 -361q55 -47 130 -47q96 0 157 70t61 178z" glyph-name="Oslash" horiz-adv-x="765" unicode="Ø"/><glyph d="M305 740l-132 135h137l101 -135h-106zM349 -8q-129 0 -206.5 76t-77.5 205v427h110v-427q0 -85 47 -131.5t127 -46.5q79 0 126.5 46.5t47.5 131.5v427h110v-427q0 -129 -77.5 -205t-206.5 -76z" glyph-name="Ugrave" horiz-adv-x="698" unicode="Ù"/><glyph d="M394 739h-106l101 135h137zM349 -8q-129 0 -206.5 76t-77.5 205v427h110v-427q0 -85 47 -131.5t127 -46.5q79 0 126.5 46.5t47.5 131.5v427h110v-427q0 -129 -77.5 -205t-206.5 -76z" glyph-name="Uacute" horiz-adv-x="698" unicode="Ú"/><glyph d="M269 910h151l107 -171h-111l-71 108l-71 -108h-110zM349 -8q-129 0 -206.5 76t-77.5 205v427h110v-427q0 -85 47 -131.5t127 -46.5q79 0 126.5 46.5t47.5 131.5v427h110v-427q0 -129 -77.5 -205t-206.5 -76z" glyph-name="Ucircumflex" horiz-adv-x="698" unicode="Û"/><glyph d="M196 756v128h119v-128h-119zM391 756v128h119v-128h-119zM349 -8q-129 0 -206.5 76t-77.5 205v427h110v-427q0 -85 47 -131.5t127 -46.5q79 0 126.5 46.5t47.5 131.5v427h110v-427q0 -129 -77.5 -205t-206.5 -76z" glyph-name="Udieresis" horiz-adv-x="698" unicode="Ü"/><glyph d="M361 739h-106l101 135h137zM268 0v282l-258 418h121l191 -318l201 318h111l-258 -418v-282h-108z" glyph-name="Yacute" horiz-adv-x="644" unicode="Ý"/><glyph d="M75 0v700h107v-133l193 1q91 0 148 -61t57 -153q0 -91 -58.5 -150.5t-152.5 -59.5h-186v-144h-108zM183 239h164q54 0 89 30t35 86t-35 87t-89 31h-164v-234z" glyph-name="Thorn" horiz-adv-x="600" unicode="Þ"/><glyph d="M272 0l-1 107h78q56 0 92 25t36 67q0 109 -169 109h-37v98h34q70 0 114.5 34.5t44.5 88.5q0 45 -37 76t-94 31q-67 0 -106.5 -42t-39.5 -108v-486h-112v486q0 113 72 180.5t192 67.5q108 0 176 -56t68 -146q0 -104 -91 -165q106 -53 106 -170q0 -90 -68.5 -143.5 t-180.5 -53.5h-77z" glyph-name="germandbls" horiz-adv-x="633" unicode="ß"/><glyph d="M210 552l-132 135h137l101 -135h-106zM199 -10q-70 0 -119.5 41t-49.5 110q0 72 44 107q47 37 138 45q37 3 50 5t39 8.5t36 18.5t10 30q0 25 -22.5 42.5t-59.5 17.5q-48 0 -74.5 -24.5t-30.5 -56.5l-112 -1q7 77 65 128t147 51q93 0 145.5 -48.5t52.5 -125.5v-338h-111 v59q-26 -33 -66 -51t-82 -18zM217 82q47 -3 88 25.5t42 83.5l1 45q-29 -16 -116 -23q-87 -8 -87 -65q0 -27 19 -45.5t53 -20.5z" glyph-name="agrave" horiz-adv-x="513" unicode="à"/><glyph d="M299 551h-106l101 135h137zM199 -10q-70 0 -119.5 41t-49.5 110q0 72 44 107q47 37 138 45q37 3 50 5t39 8.5t36 18.5t10 30q0 25 -22.5 42.5t-59.5 17.5q-48 0 -74.5 -24.5t-30.5 -56.5l-112 -1q7 77 65 128t147 51q93 0 145.5 -48.5t52.5 -125.5v-338h-111v59 q-26 -33 -66 -51t-82 -18zM217 82q47 -3 88 25.5t42 83.5l1 45q-29 -16 -116 -23q-87 -8 -87 -65q0 -27 19 -45.5t53 -20.5z" glyph-name="aacute" horiz-adv-x="513" unicode="á"/><glyph d="M174 722h151l107 -171h-111l-71 108l-71 -108h-110zM199 -10q-70 0 -119.5 41t-49.5 110q0 72 44 107q47 37 138 45q37 3 50 5t39 8.5t36 18.5t10 30q0 25 -22.5 42.5t-59.5 17.5q-48 0 -74.5 -24.5t-30.5 -56.5l-112 -1q7 77 65 128t147 51q93 0 145.5 -48.5 t52.5 -125.5v-338h-111v59q-26 -33 -66 -51t-82 -18zM217 82q47 -3 88 25.5t42 83.5l1 45q-29 -16 -116 -23q-87 -8 -87 -65q0 -27 19 -45.5t53 -20.5z" glyph-name="acircumflex" horiz-adv-x="513" unicode="â"/><glyph d="M325 553q-60 0 -101 58q-12 19 -27 19q-22 0 -25 -29q0 -19 7 -40h-85q-4 16 -4 33q-2 53 27 86t76 33q63 0 102 -58q10 -19 27 -19q15 0 21.5 14t1.5 37q-1 4 -5 17h85q2 -8 2 -12q10 -60 -19 -99.5t-83 -39.5zM199 -10q-70 0 -119.5 41t-49.5 110q0 72 44 107 q47 37 138 45q37 3 50 5t39 8.5t36 18.5t10 30q0 25 -22.5 42.5t-59.5 17.5q-48 0 -74.5 -24.5t-30.5 -56.5l-112 -1q7 77 65 128t147 51q93 0 145.5 -48.5t52.5 -125.5v-338h-111v59q-26 -33 -66 -51t-82 -18zM217 82q47 -3 88 25.5t42 83.5l1 45q-29 -16 -116 -23 q-87 -8 -87 -65q0 -27 19 -45.5t53 -20.5z" glyph-name="atilde" horiz-adv-x="513" unicode="ã"/><glyph d="M101 568v128h119v-128h-119zM296 568v128h119v-128h-119zM199 -10q-70 0 -119.5 41t-49.5 110q0 72 44 107q47 37 138 45q37 3 50 5t39 8.5t36 18.5t10 30q0 25 -22.5 42.5t-59.5 17.5q-48 0 -74.5 -24.5t-30.5 -56.5l-112 -1q7 77 65 128t147 51q93 0 145.5 -48.5 t52.5 -125.5v-338h-111v59q-26 -33 -66 -51t-82 -18zM217 82q47 -3 88 25.5t42 83.5l1 45q-29 -16 -116 -23q-87 -8 -87 -65q0 -27 19 -45.5t53 -20.5z" glyph-name="adieresis" horiz-adv-x="513" unicode="ä"/><glyph d="M260 552q-38 0 -65 27t-27 65t27 65t65 27q37 0 63.5 -27t27.5 -65q1 -37 -26 -64.5t-65 -27.5zM260 608q36 0 36 36q0 38 -36 38q-17 0 -27 -10.5t-10 -27.5q0 -36 37 -36zM199 -10q-70 0 -119.5 41t-49.5 110q0 72 44 107q47 37 138 45q37 3 50 5t39 8.5t36 18.5t10 30 q0 25 -22.5 42.5t-59.5 17.5q-48 0 -74.5 -24.5t-30.5 -56.5l-112 -1q7 77 65 128t147 51q93 0 145.5 -48.5t52.5 -125.5v-338h-111v59q-26 -33 -66 -51t-82 -18zM217 82q47 -3 88 25.5t42 83.5l1 45q-29 -16 -116 -23q-87 -8 -87 -65q0 -27 19 -45.5t53 -20.5z" glyph-name="aring" horiz-adv-x="513" unicode="å"/><glyph d="M816 214h-354v-1q0 -61 35.5 -96.5t95.5 -35.5q88 0 115 77h100q-12 -75 -69.5 -122t-145.5 -47q-128 0 -192 89q-17 -35 -70 -61.5t-116 -26.5q-72 0 -128.5 41.5t-56.5 109.5q0 72 44 107q47 37 138 45q37 3 50 5t39 8.5t36 18.5t10 30q0 25 -22.5 42.5t-59.5 17.5 q-48 0 -74.5 -24.5t-30.5 -56.5l-112 -1q7 77 65 128t147 51q112 0 166 -69q65 63 164 63q113 0 174 -82.5t52 -209.5zM587 414q-50 0 -84.5 -30t-37.5 -77h239q-2 47 -34.5 77t-82.5 30zM347 191l1 45q-29 -16 -116 -23q-87 -6 -87 -65q0 -27 19 -45.5t53 -20.5 q47 -3 88 25.5t42 83.5z" glyph-name="ae" horiz-adv-x="847" unicode="æ"/><glyph d="M272 87q45 0 74 25.5t36 62.5h112q-10 -76 -67 -126t-138 -55l-15 -26q20 4 40 1q35 -5 56.5 -30.5t21.5 -61.5q0 -46 -31.5 -77.5t-77.5 -31.5q-37 0 -71.5 21.5t-45.5 52.5l63 22q8 -13 23.5 -22t30.5 -9q18 0 30 13t12 31q0 29 -25 37t-57 -8l-52 30l33 61 q-87 15 -140.5 84t-53.5 169q0 114 68.5 187t175.5 73q87 0 148.5 -50t71.5 -129h-112q-9 37 -38.5 62.5t-73.5 25.5q-54 0 -90.5 -44t-36.5 -118q0 -78 36.5 -124t92.5 -46z" glyph-name="ccedilla" horiz-adv-x="525" unicode="ç"/><glyph d="M218 546l-132 135h137l101 -135h-106zM271 -11q-110 0 -175.5 68.5t-65.5 188.5q0 116 66 188t172 72q113 0 174 -82.5t52 -209.5h-354v-1q0 -61 35.5 -96.5t95.5 -35.5q88 0 115 77h100q-12 -75 -69.5 -122t-145.5 -47zM143 307h239q-2 47 -34.5 77t-82.5 30t-84.5 -30 t-37.5 -77z" glyph-name="egrave" horiz-adv-x="525" unicode="è"/><glyph d="M307 545h-106l101 135h137zM271 -11q-110 0 -175.5 68.5t-65.5 188.5q0 116 66 188t172 72q113 0 174 -82.5t52 -209.5h-354v-1q0 -61 35.5 -96.5t95.5 -35.5q88 0 115 77h100q-12 -75 -69.5 -122t-145.5 -47zM143 307h239q-2 47 -34.5 77t-82.5 30t-84.5 -30t-37.5 -77z " glyph-name="eacute" horiz-adv-x="525" unicode="é"/><glyph d="M182 716h151l107 -171h-111l-71 108l-71 -108h-110zM271 -11q-110 0 -175.5 68.5t-65.5 188.5q0 116 66 188t172 72q113 0 174 -82.5t52 -209.5h-354v-1q0 -61 35.5 -96.5t95.5 -35.5q88 0 115 77h100q-12 -75 -69.5 -122t-145.5 -47zM143 307h239q-2 47 -34.5 77 t-82.5 30t-84.5 -30t-37.5 -77z" glyph-name="ecircumflex" horiz-adv-x="525" unicode="ê"/><glyph d="M109 562v128h119v-128h-119zM304 562v128h119v-128h-119zM271 -11q-110 0 -175.5 68.5t-65.5 188.5q0 116 66 188t172 72q113 0 174 -82.5t52 -209.5h-354v-1q0 -61 35.5 -96.5t95.5 -35.5q88 0 115 77h100q-12 -75 -69.5 -122t-145.5 -47zM143 307h239q-2 47 -34.5 77 t-82.5 30t-84.5 -30t-37.5 -77z" glyph-name="edieresis" horiz-adv-x="525" unicode="ë"/><glyph d="M86 540l-132 135h137l101 -135h-106zM80 0v500h112v-500h-112z" glyph-name="igrave" horiz-adv-x="242" unicode="ì"/><glyph d="M135 539h-106l101 135h137zM40 0v500h112v-500h-112z" glyph-name="iacute" horiz-adv-x="273" unicode="í"/><glyph d="M68 710h151l107 -171h-111l-71 108l-71 -108h-110zM98 0v500h112v-500h-112z" glyph-name="icircumflex" horiz-adv-x="320" unicode="î"/><glyph d="M-23 556v128h119v-128h-119zM172 556v128h119v-128h-119zM80 0v500h112v-500h-112z" glyph-name="idieresis" horiz-adv-x="302" unicode="ï"/><glyph d="M610 641v-95h-91v-546h-101v69q-14 -27 -57 -53.5t-102 -26.5q-88 0 -158.5 68.5t-70.5 189.5q0 120 68 189t158 69q107 0 162 -76v117h-75v95h75v59h101v-59h91zM279 88q61 0 99.5 44t38.5 112q0 72 -38.5 118t-99.5 46q-60 0 -98 -43t-38 -111q0 -73 38 -119.5 t98 -46.5z" glyph-name="eth" horiz-adv-x="675" unicode="ð"/><glyph d="M361 552q-60 0 -101 58q-12 19 -27 19q-22 0 -25 -29q0 -19 7 -40h-85q-4 16 -4 33q-2 53 27 86t76 33q63 0 102 -58q10 -19 27 -19q15 0 21.5 14t1.5 37q-1 4 -5 17h85q2 -8 2 -12q10 -60 -19 -99.5t-83 -39.5zM65 0v500h106v-63q20 28 58 52t92 24q23 0 46.5 -5t50 -19 t46.5 -36t33 -60t13 -86v-307h-115v295q0 63 -27 93t-72 30q-52 0 -88.5 -45.5t-36.5 -120.5v-252h-106z" glyph-name="ntilde" unicode="ñ"/><glyph d="M222 540l-132 135h137l101 -135h-106zM272 -5q-103 0 -172.5 72t-69.5 183q0 112 69.5 184.5t172.5 72.5q102 0 171.5 -72.5t69.5 -184.5q0 -111 -69.5 -183t-171.5 -72zM271 94q64 0 100.5 43.5t36.5 111.5q0 70 -36 114t-100 44q-63 0 -99 -44t-36 -113 q0 -68 35.5 -112t98.5 -44z" glyph-name="ograve" horiz-adv-x="543" unicode="ò"/><glyph d="M311 539h-106l101 135h137zM272 -5q-103 0 -172.5 72t-69.5 183q0 112 69.5 184.5t172.5 72.5q102 0 171.5 -72.5t69.5 -184.5q0 -111 -69.5 -183t-171.5 -72zM271 94q64 0 100.5 43.5t36.5 111.5q0 70 -36 114t-100 44q-63 0 -99 -44t-36 -113q0 -68 35.5 -112t98.5 -44 z" glyph-name="oacute" horiz-adv-x="543" unicode="ó"/><glyph d="M186 710h151l107 -171h-111l-71 108l-71 -108h-110zM272 -5q-103 0 -172.5 72t-69.5 183q0 112 69.5 184.5t172.5 72.5q102 0 171.5 -72.5t69.5 -184.5q0 -111 -69.5 -183t-171.5 -72zM271 94q64 0 100.5 43.5t36.5 111.5q0 70 -36 114t-100 44q-63 0 -99 -44t-36 -113 q0 -68 35.5 -112t98.5 -44z" glyph-name="ocircumflex" horiz-adv-x="543" unicode="ô"/><glyph d="M337 541q-60 0 -101 58q-12 19 -27 19q-22 0 -25 -29q0 -19 7 -40h-85q-4 16 -4 33q-2 53 27 86t76 33q63 0 102 -58q10 -19 27 -19q15 0 21.5 14t1.5 37q-1 4 -5 17h85q2 -8 2 -12q10 -60 -19 -99.5t-83 -39.5zM272 -5q-103 0 -172.5 72t-69.5 183q0 112 69.5 184.5 t172.5 72.5q102 0 171.5 -72.5t69.5 -184.5q0 -111 -69.5 -183t-171.5 -72zM271 94q64 0 100.5 43.5t36.5 111.5q0 70 -36 114t-100 44q-63 0 -99 -44t-36 -113q0 -68 35.5 -112t98.5 -44z" glyph-name="otilde" horiz-adv-x="543" unicode="õ"/><glyph d="M113 556v128h119v-128h-119zM308 556v128h119v-128h-119zM272 -5q-103 0 -172.5 72t-69.5 183q0 112 69.5 184.5t172.5 72.5q102 0 171.5 -72.5t69.5 -184.5q0 -111 -69.5 -183t-171.5 -72zM271 94q64 0 100.5 43.5t36.5 111.5q0 70 -36 114t-100 44q-63 0 -99 -44 t-36 -113q0 -68 35.5 -112t98.5 -44z" glyph-name="odieresis" horiz-adv-x="543" unicode="ö"/><glyph d="M304 415v128h119v-128h-119zM80 244v87h571v-87h-571zM304 25v128h119v-128h-119z" glyph-name="divide" horiz-adv-x="727" unicode="÷"/><glyph d="M540 500l-78 -87q51 -69 51 -163q0 -111 -69.5 -183t-171.5 -72q-81 0 -144 47l-38 -42h-100l86 96q-46 67 -46 154q0 112 69.5 184.5t172.5 72.5q77 0 136 -42l32 35h100zM137 250q0 -41 13 -73l190 212q-29 18 -68 18q-63 0 -99 -44t-36 -113zM408 249q0 49 -18 85 l-195 -217q32 -23 76 -23q64 0 100.5 43.5t36.5 111.5z" glyph-name="oslash" horiz-adv-x="569" unicode="ø"/><glyph d="M235 540l-132 135h137l101 -135h-106zM249 -13q-23 0 -46.5 5t-50 19t-46.5 36t-33 60t-13 86v307h115v-295q0 -63 27 -93t72 -30q52 0 88.5 45.5t36.5 120.5v252h106v-500h-106v63q-20 -28 -58 -52t-92 -24z" glyph-name="ugrave" unicode="ù"/><glyph d="M324 539h-106l101 135h137zM249 -13q-23 0 -46.5 5t-50 19t-46.5 36t-33 60t-13 86v307h115v-295q0 -63 27 -93t72 -30q52 0 88.5 45.5t36.5 120.5v252h106v-500h-106v63q-20 -28 -58 -52t-92 -24z" glyph-name="uacute" unicode="ú"/><glyph d="M199 710h151l107 -171h-111l-71 108l-71 -108h-110zM249 -13q-23 0 -46.5 5t-50 19t-46.5 36t-33 60t-13 86v307h115v-295q0 -63 27 -93t72 -30q52 0 88.5 45.5t36.5 120.5v252h106v-500h-106v63q-20 -28 -58 -52t-92 -24z" glyph-name="ucircumflex" unicode="û"/><glyph d="M126 556v128h119v-128h-119zM321 556v128h119v-128h-119zM249 -13q-23 0 -46.5 5t-50 19t-46.5 36t-33 60t-13 86v307h115v-295q0 -63 27 -93t72 -30q52 0 88.5 45.5t36.5 120.5v252h106v-500h-106v63q-20 -28 -58 -52t-92 -24z" glyph-name="udieresis" unicode="ü"/><glyph d="M284 539h-106l101 135h137zM36 -200l-1 97h49q61 0 88 70l23 64l-195 469h115l135 -342l125 342h115l-216 -561q-55 -139 -179 -139h-59z" glyph-name="yacute" horiz-adv-x="490" unicode="ý"/><glyph d="M65 -120v771h101v-220q14 27 57 53.5t102 26.5q88 0 158.5 -68.5t70.5 -189.5q0 -120 -68 -189t-158 -69q-107 0 -162 76v-191h-101zM305 92q60 0 98 43t38 111q0 73 -38 119.5t-98 46.5q-61 0 -99.5 -44t-38.5 -112q0 -72 38.5 -118t99.5 -46z" glyph-name="thorn" horiz-adv-x="584" unicode="þ"/><glyph d="M86 556v128h119v-128h-119zM281 556v128h119v-128h-119zM36 -200l-1 97h49q61 0 88 70l23 64l-195 469h115l135 -342l125 342h115l-216 -561q-55 -139 -179 -139h-59z" glyph-name="ydieresis" horiz-adv-x="490" unicode="ÿ"/><glyph d="M192 748v86h310v-86h-310zM145 0l-125 1l268 699h112l268 -700h-125l-66 172h-267zM240 272h207l-103 291z" glyph-name="Amacron" horiz-adv-x="688" unicode="Ā"/><glyph d="M108 560v86h310v-86h-310zM199 -10q-70 0 -119.5 41t-49.5 110q0 72 44 107q47 37 138 45q37 3 50 5t39 8.5t36 18.5t10 30q0 25 -22.5 42.5t-59.5 17.5q-48 0 -74.5 -24.5t-30.5 -56.5l-112 -1q7 77 65 128t147 51q93 0 145.5 -48.5t52.5 -125.5v-338h-111v59 q-26 -33 -66 -51t-82 -18zM217 82q47 -3 88 25.5t42 83.5l1 45q-29 -16 -116 -23q-87 -8 -87 -65q0 -27 19 -45.5t53 -20.5z" glyph-name="amacron" horiz-adv-x="513" unicode="ā"/><glyph d="M344 738q-84 0 -130.5 53t-48.5 129h88q2 -44 25.5 -74.5t65.5 -29.5q43 1 66 31t25 73h88q-2 -76 -48.5 -129t-130.5 -53zM145 0l-125 1l268 699h112l268 -700h-125l-66 172h-267zM240 272h207l-103 291z" glyph-name="Abreve" horiz-adv-x="688" unicode="Ă"/><glyph d="M260 550q-84 0 -130.5 53t-48.5 129h88q2 -44 25.5 -74.5t65.5 -29.5q43 1 66 31t25 73h88q-2 -76 -48.5 -129t-130.5 -53zM199 -10q-70 0 -119.5 41t-49.5 110q0 72 44 107q47 37 138 45q37 3 50 5t39 8.5t36 18.5t10 30q0 25 -22.5 42.5t-59.5 17.5q-48 0 -74.5 -24.5 t-30.5 -56.5l-112 -1q7 77 65 128t147 51q93 0 145.5 -48.5t52.5 -125.5v-338h-111v59q-26 -33 -66 -51t-82 -18zM217 82q47 -3 88 25.5t42 83.5l1 45q-29 -16 -116 -23q-87 -8 -87 -65q0 -27 19 -45.5t53 -20.5z" glyph-name="abreve" horiz-adv-x="513" unicode="ă"/><glyph d="M677 -135l46 -64q-65 -67 -161 -60q-58 4 -94.5 32.5t-36.5 82.5q0 95 115 144h-3l-66 172h-267l-65 -172l-125 1l268 699h112l267 -697l10 -3q-67 0 -107.5 -42.5t-40.5 -89.5q0 -25 15.5 -40.5t42.5 -15.5q26 0 51 15t39 38zM240 272h207l-103 291z" glyph-name="Aogonek" horiz-adv-x="600" unicode="Ą"/><glyph d="M460 -136l46 -64q-65 -67 -161 -60q-58 4 -94.5 32.5t-36.5 82.5q0 103 133 151v53q-26 -33 -66 -51t-82 -18q-70 0 -119.5 41t-49.5 110q0 72 44 107q47 37 138 45q37 3 50 5t39 8.5t36 18.5t10 30q0 25 -22.5 42.5t-59.5 17.5q-48 0 -74.5 -24.5t-30.5 -56.5l-112 -1 q7 77 65 128t147 51q93 0 145.5 -48.5t52.5 -125.5v-338h-1l3 -1q-67 0 -107.5 -42.5t-40.5 -89.5q0 -25 15.5 -40.5t42.5 -15.5q26 0 51 15t39 38zM217 82q47 -3 88 25.5t42 83.5l1 45q-29 -16 -116 -23q-87 -8 -87 -65q0 -27 19 -45.5t53 -20.5z" glyph-name="aogonek" horiz-adv-x="513" unicode="ą"/><glyph d="M413 746h-106l101 135h137zM367 -5q-138 0 -233 100.5t-94 251.5q1 156 94.5 258t239.5 102q126 0 207.5 -71.5t97.5 -182.5h-126q-11 60 -60.5 102.5t-123.5 42.5q-93 0 -149.5 -72.5t-56.5 -179.5q0 -104 56 -173.5t146 -69.5q76 0 126 44.5t62 103.5h126 q-18 -110 -100.5 -183t-211.5 -73z" glyph-name="Cacute" horiz-adv-x="714" unicode="Ć"/><glyph d="M302 539h-106l101 135h137zM270 -7q-106 0 -173 72t-67 185q0 114 68.5 187t175.5 73q87 0 148.5 -50t71.5 -129h-112q-9 37 -38.5 62.5t-73.5 25.5q-54 0 -90.5 -44t-36.5 -118q0 -78 36.5 -124t92.5 -46q45 0 74 25.5t36 62.5h112q-10 -80 -73 -131t-151 -51z" glyph-name="cacute" horiz-adv-x="525" unicode="ć"/><glyph d="M288 917h151l107 -171h-111l-71 108l-71 -108h-110zM367 -5q-138 0 -233 100.5t-94 251.5q1 156 94.5 258t239.5 102q126 0 207.5 -71.5t97.5 -182.5h-126q-11 60 -60.5 102.5t-123.5 42.5q-93 0 -149.5 -72.5t-56.5 -179.5q0 -104 56 -173.5t146 -69.5q76 0 126 44.5 t62 103.5h126q-18 -110 -100.5 -183t-211.5 -73z" glyph-name="Ccircumflex" horiz-adv-x="714" unicode="Ĉ"/><glyph d="M177 710h151l107 -171h-111l-71 108l-71 -108h-110zM270 -7q-106 0 -173 72t-67 185q0 114 68.5 187t175.5 73q87 0 148.5 -50t71.5 -129h-112q-9 37 -38.5 62.5t-73.5 25.5q-54 0 -90.5 -44t-36.5 -118q0 -78 36.5 -124t92.5 -46q45 0 74 25.5t36 62.5h112 q-10 -80 -73 -131t-151 -51z" glyph-name="ccircumflex" horiz-adv-x="525" unicode="ĉ"/><glyph d="M312 764v128h119v-128h-119zM367 -5q-138 0 -233 100.5t-94 251.5q1 156 94.5 258t239.5 102q126 0 207.5 -71.5t97.5 -182.5h-126q-11 60 -60.5 102.5t-123.5 42.5q-93 0 -149.5 -72.5t-56.5 -179.5q0 -104 56 -173.5t146 -69.5q76 0 126 44.5t62 103.5h126 q-18 -110 -100.5 -183t-211.5 -73z" glyph-name="Cdotaccent" horiz-adv-x="714" unicode="Ċ"/><glyph d="M201 557v128h119v-128h-119zM270 -7q-106 0 -173 72t-67 185q0 114 68.5 187t175.5 73q87 0 148.5 -50t71.5 -129h-112q-9 37 -38.5 62.5t-73.5 25.5q-54 0 -90.5 -44t-36.5 -118q0 -78 36.5 -124t92.5 -46q45 0 74 25.5t36 62.5h112q-10 -80 -73 -131t-151 -51z" glyph-name="cdotaccent" horiz-adv-x="525" unicode="ċ"/><glyph d="M192 934h106l75 -108l76 108h106l-107 -171h-151zM367 -5q-138 0 -233 100.5t-94 251.5q1 156 94.5 258t239.5 102q126 0 207.5 -71.5t97.5 -182.5h-126q-11 60 -60.5 102.5t-123.5 42.5q-93 0 -149.5 -72.5t-56.5 -179.5q0 -104 56 -173.5t146 -69.5q76 0 126 44.5 t62 103.5h126q-18 -110 -100.5 -183t-211.5 -73z" glyph-name="Ccaron" horiz-adv-x="714" unicode="Č"/><glyph d="M81 727h106l75 -108l76 108h106l-107 -171h-151zM270 -7q-106 0 -173 72t-67 185q0 114 68.5 187t175.5 73q87 0 148.5 -50t71.5 -129h-112q-9 37 -38.5 62.5t-73.5 25.5q-54 0 -90.5 -44t-36.5 -118q0 -78 36.5 -124t92.5 -46q45 0 74 25.5t36 62.5h112 q-10 -80 -73 -131t-151 -51z" glyph-name="ccaron" horiz-adv-x="525" unicode="č"/><glyph d="M168 927h106l75 -108l76 108h106l-107 -171h-151zM75 -2v702l251 2q143 2 238 -96.5t95 -250.5q0 -154 -92.5 -254t-230.5 -101zM179 104l143 2q96 2 161 69.5t65 175.5q0 109 -63.5 176.5t-158.5 65.5l-147 -2v-487z" glyph-name="Dcaron" horiz-adv-x="699" unicode="Ď"/><glyph d="M259 -11q-88 0 -158.5 68.5t-70.5 189.5q0 120 68 189t158 69q107 0 162 -76v271h101v-700h-101v69q-14 -27 -57 -53.5t-102 -26.5zM38 700h106l75 -108l76 108h106l-107 -171h-151zM279 88q61 0 99.5 44t38.5 112q0 72 -38.5 118t-99.5 46q-60 0 -98 -43t-38 -111 q0 -73 38 -119.5t98 -46.5z" glyph-name="dcaron" horiz-adv-x="584" unicode="ď"/><glyph d="M367 702q143 2 238 -96.5t95 -250.5q0 -154 -92.5 -254t-230.5 -101l-261 -2v306h-76v91h76v305zM363 106q96 2 161 69.5t65 175.5q0 109 -63.5 176.5t-158.5 65.5l-147 -2v-196h175v-91h-175v-200z" glyph-name="Dcroat" horiz-adv-x="787" unicode="Đ"/><glyph d="M157 748v86h310v-86h-310zM75 0v700h459v-107h-352v-187h331v-103h-331v-196h352v-107h-459z" glyph-name="Emacron" horiz-adv-x="564" unicode="Ē"/><glyph d="M116 554v86h310v-86h-310zM271 -11q-110 0 -175.5 68.5t-65.5 188.5q0 116 66 188t172 72q113 0 174 -82.5t52 -209.5h-354v-1q0 -61 35.5 -96.5t95.5 -35.5q88 0 115 77h100q-12 -75 -69.5 -122t-145.5 -47zM143 307h239q-2 47 -34.5 77t-82.5 30t-84.5 -30t-37.5 -77z " glyph-name="emacron" horiz-adv-x="525" unicode="ē"/><glyph d="M309 738q-84 0 -130.5 53t-48.5 129h88q2 -44 25.5 -74.5t65.5 -29.5q43 1 66 31t25 73h88q-2 -76 -48.5 -129t-130.5 -53zM75 0v700h459v-107h-352v-187h331v-103h-331v-196h352v-107h-459z" glyph-name="Ebreve" horiz-adv-x="564" unicode="Ĕ"/><glyph d="M268 544q-84 0 -130.5 53t-48.5 129h88q2 -44 25.5 -74.5t65.5 -29.5q43 1 66 31t25 73h88q-2 -76 -48.5 -129t-130.5 -53zM271 -11q-110 0 -175.5 68.5t-65.5 188.5q0 116 66 188t172 72q113 0 174 -82.5t52 -209.5h-354v-1q0 -61 35.5 -96.5t95.5 -35.5q88 0 115 77 h100q-12 -75 -69.5 -122t-145.5 -47zM143 307h239q-2 47 -34.5 77t-82.5 30t-84.5 -30t-37.5 -77z" glyph-name="ebreve" horiz-adv-x="525" unicode="ĕ"/><glyph d="M247 757v128h119v-128h-119zM75 0v700h459v-107h-352v-187h331v-103h-331v-196h352v-107h-459z" glyph-name="Edotaccent" horiz-adv-x="564" unicode="Ė"/><glyph d="M206 563v128h119v-128h-119zM271 -11q-110 0 -175.5 68.5t-65.5 188.5q0 116 66 188t172 72q113 0 174 -82.5t52 -209.5h-354v-1q0 -61 35.5 -96.5t95.5 -35.5q88 0 115 77h100q-12 -75 -69.5 -122t-145.5 -47zM143 307h239q-2 47 -34.5 77t-82.5 30t-84.5 -30t-37.5 -77 z" glyph-name="edotaccent" horiz-adv-x="525" unicode="ė"/><glyph d="M532 -135l46 -64q-65 -67 -161 -60q-58 4 -94.5 32.5t-36.5 82.5q0 95 115 144h-326v700h459v-107h-352v-187h331v-103h-331v-196h352v-107h-2q-67 0 -107.5 -42.5t-40.5 -89.5q0 -25 15.5 -40.5t42.5 -15.5q26 0 51 15t39 38z" glyph-name="Eogonek" horiz-adv-x="564" unicode="Ę"/><glyph d="M494 214h-354v-1q0 -61 35.5 -96.5t95.5 -35.5q88 0 115 77h100q-11 -73 -66 -119.5t-139 -49.5q-36 -19 -56 -51.5t-20 -63.5q0 -25 15.5 -40.5t42.5 -15.5q26 0 51 15t39 38l46 -64q-65 -67 -161 -60q-58 4 -94.5 32.5t-36.5 82.5q0 85 95 135q-81 20 -126.5 85 t-45.5 164q0 116 66 188t172 72q113 0 174 -82.5t52 -209.5zM265 414q-50 0 -84.5 -30t-37.5 -77h239q-2 47 -34.5 77t-82.5 30z" glyph-name="eogonek" horiz-adv-x="525" unicode="ę"/><glyph d="M127 927h106l75 -108l76 108h106l-107 -171h-151zM75 0v700h459v-107h-352v-187h331v-103h-331v-196h352v-107h-459z" glyph-name="Ecaron" horiz-adv-x="564" unicode="Ě"/><glyph d="M86 733h106l75 -108l76 108h106l-107 -171h-151zM271 -11q-110 0 -175.5 68.5t-65.5 188.5q0 116 66 188t172 72q113 0 174 -82.5t52 -209.5h-354v-1q0 -61 35.5 -96.5t95.5 -35.5q88 0 115 77h100q-12 -75 -69.5 -122t-145.5 -47zM143 307h239q-2 47 -34.5 77t-82.5 30 t-84.5 -30t-37.5 -77z" glyph-name="ecaron" horiz-adv-x="525" unicode="ě"/><glyph d="M289 910h151l107 -171h-111l-71 108l-71 -108h-110zM364 -5q-140 0 -232.5 100t-91.5 252q1 156 94.5 258t239.5 102q126 0 207.5 -71.5t97.5 -182.5h-126q-11 60 -60.5 102.5t-123.5 42.5q-93 0 -149.5 -72.5t-56.5 -179.5q0 -104 56.5 -174t146.5 -69q69 1 124 38.5 t74 114.5h-200v104h315v-360h-96l-8 103q-33 -52 -89.5 -80t-121.5 -28z" glyph-name="Gcircumflex" horiz-adv-x="749" unicode="Ĝ"/><glyph d="M210 710h151l107 -171h-111l-71 108l-71 -108h-110zM274 -209q-101 0 -162.5 52t-65.5 125l106 -1q7 -29 25 -48t41.5 -26t35.5 -8.5t23 -1.5q68 0 109.5 40.5t41.5 125.5v46q-23 -45 -72 -72.5t-105 -27.5q-103 0 -162 71.5t-59 186.5q0 112 63 185t161 73q54 0 102 -27 t72 -71v87h103v-451q0 -128 -70 -193t-187 -65zM280 92q61 0 99.5 46t38.5 118q0 68 -38.5 112t-99.5 44q-60 0 -98 -46.5t-38 -119.5q0 -68 38 -111t98 -43z" glyph-name="gcircumflex" horiz-adv-x="591" unicode="ĝ"/><glyph d="M375 738q-84 0 -130.5 53t-48.5 129h88q2 -44 25.5 -74.5t65.5 -29.5q43 1 66 31t25 73h88q-2 -76 -48.5 -129t-130.5 -53zM364 -5q-140 0 -232.5 100t-91.5 252q1 156 94.5 258t239.5 102q126 0 207.5 -71.5t97.5 -182.5h-126q-11 60 -60.5 102.5t-123.5 42.5 q-93 0 -149.5 -72.5t-56.5 -179.5q0 -104 56.5 -174t146.5 -69q69 1 124 38.5t74 114.5h-200v104h315v-360h-96l-8 103q-33 -52 -89.5 -80t-121.5 -28z" glyph-name="Gbreve" horiz-adv-x="749" unicode="Ğ"/><glyph d="M296 538q-84 0 -130.5 53t-48.5 129h88q2 -44 25.5 -74.5t65.5 -29.5q43 1 66 31t25 73h88q-2 -76 -48.5 -129t-130.5 -53zM274 -209q-101 0 -162.5 52t-65.5 125l106 -1q7 -29 25 -48t41.5 -26t35.5 -8.5t23 -1.5q68 0 109.5 40.5t41.5 125.5v46q-23 -45 -72 -72.5 t-105 -27.5q-103 0 -162 71.5t-59 186.5q0 112 63 185t161 73q54 0 102 -27t72 -71v87h103v-451q0 -128 -70 -193t-187 -65zM280 92q61 0 99.5 46t38.5 118q0 68 -38.5 112t-99.5 44q-60 0 -98 -46.5t-38 -119.5q0 -68 38 -111t98 -43z" glyph-name="gbreve" horiz-adv-x="591" unicode="ğ"/><glyph d="M313 757v128h119v-128h-119zM364 -5q-140 0 -232.5 100t-91.5 252q1 156 94.5 258t239.5 102q126 0 207.5 -71.5t97.5 -182.5h-126q-11 60 -60.5 102.5t-123.5 42.5q-93 0 -149.5 -72.5t-56.5 -179.5q0 -104 56.5 -174t146.5 -69q69 1 124 38.5t74 114.5h-200v104h315 v-360h-96l-8 103q-33 -52 -89.5 -80t-121.5 -28z" glyph-name="Gdotaccent" horiz-adv-x="749" unicode="Ġ"/><glyph d="M234 557v128h119v-128h-119zM274 -209q-101 0 -162.5 52t-65.5 125l106 -1q7 -29 25 -48t41.5 -26t35.5 -8.5t23 -1.5q68 0 109.5 40.5t41.5 125.5v46q-23 -45 -72 -72.5t-105 -27.5q-103 0 -162 71.5t-59 186.5q0 112 63 185t161 73q54 0 102 -27t72 -71v87h103v-451 q0 -128 -70 -193t-187 -65zM280 92q61 0 99.5 46t38.5 118q0 68 -38.5 112t-99.5 44q-60 0 -98 -46.5t-38 -119.5q0 -68 38 -111t98 -43z" glyph-name="gdotaccent" horiz-adv-x="591" unicode="ġ"/><glyph d="M364 -5q-140 0 -232.5 100t-91.5 252q1 156 94.5 258t239.5 102q126 0 207.5 -71.5t97.5 -182.5h-126q-11 60 -60.5 102.5t-123.5 42.5q-93 0 -149.5 -72.5t-56.5 -179.5q0 -104 56.5 -174t146.5 -69q69 1 124 38.5t74 114.5h-200v104h315v-360h-96l-8 103 q-33 -52 -89.5 -80t-121.5 -28zM322 -300v61q55 1 54 59h-60v128h119l-1 -128q0 -120 -112 -120z" glyph-name="Gcommaaccent" horiz-adv-x="749" unicode="Ģ"/><glyph d="M274 -209q-101 0 -162.5 52t-65.5 125l106 -1q7 -29 25 -48t41.5 -26t35.5 -8.5t23 -1.5q68 0 109.5 40.5t41.5 125.5v46q-23 -45 -72 -72.5t-105 -27.5q-103 0 -162 71.5t-59 186.5q0 112 63 185t161 73q54 0 102 -27t72 -71v87h103v-451q0 -128 -70 -193t-187 -65z M280 92q61 0 99.5 46t38.5 118q0 68 -38.5 112t-99.5 44q-60 0 -98 -46.5t-38 -119.5q0 -68 38 -111t98 -43zM243 -500v61q55 1 54 59h-60v128h119l-1 -128q0 -120 -112 -120z" glyph-name="gcommaaccent" horiz-adv-x="591" unicode="ģ"/><glyph d="M271 910h151l107 -171h-111l-71 108l-71 -108h-110zM75 0v700h117v-292h329v292h117v-700h-117v312h-329v-312h-117z" glyph-name="Hcircumflex" horiz-adv-x="713" unicode="Ĥ"/><glyph d="M199 1010h151l107 -171h-111l-71 108l-71 -108h-110zM65 0v700h106v-263q20 28 58 52t92 24q23 0 46.5 -5t50 -19t46.5 -36t33 -60t13 -86v-307h-115v295q0 63 -27 93t-72 30q-52 0 -88.5 -45.5t-36.5 -120.5v-252h-106z" glyph-name="hcircumflex" unicode="ĥ"/><glyph d="M683 593v-94h-45v-499h-117v312h-329v-312h-117v499h-44v94h44v107h117v-107h329v107h117v-107h45zM521 408v91h-329v-91h329z" glyph-name="Hbar" horiz-adv-x="764" unicode="Ħ"/><glyph d="M372 513q23 0 46.5 -5t50 -19t46.5 -36t33 -60t13 -86v-307h-115v295q0 63 -27 93t-72 30q-52 0 -88.5 -45.5t-36.5 -120.5v-252h-106v550h-51v83h51v67h106v-67h101v-83h-101v-113q20 28 58 52t92 24z" glyph-name="hbar" horiz-adv-x="621" unicode="ħ"/><glyph d="M203 741q-60 0 -101 58q-12 19 -27 19q-22 0 -25 -29q0 -19 7 -40h-85q-4 16 -4 33q-2 53 27 86t76 33q63 0 102 -58q10 -19 27 -19q15 0 21.5 14t1.5 37q-1 4 -5 17h85q2 -8 2 -12q10 -60 -19 -99.5t-83 -39.5zM80 0v700h115v-700h-115z" glyph-name="Itilde" horiz-adv-x="275" unicode="Ĩ"/><glyph d="M211 541q-60 0 -101 58q-12 19 -27 19q-22 0 -25 -29q0 -19 7 -40h-85q-4 16 -4 33q-2 53 27 86t76 33q63 0 102 -58q10 -19 27 -19q15 0 21.5 14t1.5 37q-1 4 -5 17h85q2 -8 2 -12q10 -60 -19 -99.5t-83 -39.5zM90 0v500h112v-500h-112z" glyph-name="itilde" horiz-adv-x="312" unicode="ĩ"/><glyph d="M-34 748v86h310v-86h-310zM60 0v700h115v-700h-115z" glyph-name="Imacron" horiz-adv-x="238" unicode="Ī"/><glyph d="M-14 548v86h310v-86h-310zM82 0v500h112v-500h-112z" glyph-name="imacron" horiz-adv-x="292" unicode="ī"/><glyph d="M128 738q-84 0 -130.5 53t-48.5 129h88q2 -44 25.5 -74.5t65.5 -29.5q43 1 66 31t25 73h88q-2 -76 -48.5 -129t-130.5 -53zM70 0v700h115v-700h-115z" glyph-name="Ibreve" horiz-adv-x="247" unicode="Ĭ"/><glyph d="M156 538q-84 0 -130.5 53t-48.5 129h88q2 -44 25.5 -74.5t65.5 -29.5q43 1 66 31t25 73h88q-2 -76 -48.5 -129t-130.5 -53zM100 0v500h112v-500h-112z" glyph-name="ibreve" horiz-adv-x="332" unicode="ĭ"/><glyph d="M195 -136l46 -64q-65 -67 -161 -60q-58 4 -94.5 32.5t-36.5 82.5q0 102 131 151v694h115v-700h-3l3 -1q-67 0 -107.5 -42.5t-40.5 -89.5q0 -25 15.5 -40.5t42.5 -15.5q26 0 51 15t39 38z" glyph-name="Iogonek" horiz-adv-x="268" unicode="Į"/><glyph d="M179 700v-128h-119v128h119zM174 -135l46 -64q-65 -67 -161 -60q-58 4 -94.5 32.5t-36.5 82.5q0 104 136 152v492h112v-500h-2q-67 0 -107.5 -42.5t-40.5 -89.5q0 -25 15.5 -40.5t42.5 -15.5q26 0 51 15t39 38z" glyph-name="iogonek" horiz-adv-x="239" unicode="į"/><glyph d="M76 757v128h119v-128h-119zM80 0v700h115v-700h-115z" glyph-name="Idotaccent" horiz-adv-x="275" unicode="İ"/><glyph d="M60 0v500h112v-500h-112z" glyph-name="dotlessi" horiz-adv-x="232" unicode="ı"/><glyph d="M318 910h151l107 -171h-111l-71 108l-71 -108h-110zM234 -8q-99 0 -161.5 60.5t-62.5 160.5v55h105v-51q0 -54 33 -87.5t86 -33.5q50 0 81 35t31 98v471h113v-475q0 -107 -65 -170t-160 -63z" glyph-name="Jcircumflex" horiz-adv-x="524" unicode="Ĵ"/><glyph d="M86 700h151l107 -171h-111l-71 108l-71 -108h-110zM17 -177v101h23q33 0 52.5 19.5t19.5 59.5v497h106v-517q0 -74 -44.5 -117t-114.5 -43h-42z" glyph-name="jcircumflex" horiz-adv-x="309" unicode="ĵ"/><glyph d="M75 0v700h105v-344l310 344h134l-295 -326l306 -374h-140l-242 296l-73 -82v-214h-105zM267 -300v61q55 1 54 59h-60v128h119l-1 -128q0 -120 -112 -120z" glyph-name="Kcommaaccent" horiz-adv-x="640" unicode="Ķ"/><glyph d="M65 0v700h105v-393l179 193h132l-188 -200l209 -299l-119 -1l-157 225l-56 -59v-166h-105zM202 -300v61q55 1 54 59h-60v128h119l-1 -128q0 -120 -112 -120z" glyph-name="kcommaaccent" horiz-adv-x="512" unicode="ķ"/><glyph d="M172 739h-106l101 135h137zM75 0v700h116v-590h310v-110h-426z" glyph-name="Lacute" horiz-adv-x="516" unicode="Ĺ"/><glyph d="M160 839h-106l101 135h137zM65 0v700h112v-700h-112z" glyph-name="lacute" horiz-adv-x="242" unicode="ĺ"/><glyph d="M75 0v700h116v-590h310v-110h-426zM204 -300v61q55 1 54 59h-60v128h119l-1 -128q0 -120 -112 -120z" glyph-name="Lcommaaccent" horiz-adv-x="516" unicode="Ļ"/><glyph d="M65 0v700h112v-700h-112zM67 -300v61q55 1 54 59h-60v128h119l-1 -128q0 -120 -112 -120z" glyph-name="lcommaaccent" horiz-adv-x="242" unicode="ļ"/><glyph d="M-49 927h106l75 -108l76 108h106l-107 -171h-151zM75 0v700h116v-590h310v-110h-426z" glyph-name="Lcaron" horiz-adv-x="516" unicode="Ľ"/><glyph d="M-61 1027h106l75 -108l76 108h106l-107 -171h-151zM65 0v700h112v-700h-112z" glyph-name="lcaron" horiz-adv-x="242" unicode="ľ"/><glyph d="M72 735v128h119v-128h-119zM75 0v700h116v-590h310v-110h-426z" glyph-name="Ldot" horiz-adv-x="516" unicode="Ŀ"/><glyph d="M61 728v128h119v-128h-119zM65 0v700h112v-700h-112z" glyph-name="ldot" horiz-adv-x="245" unicode="ŀ"/><glyph d="M191 110h310v-110h-426v269l-74 -37v94l74 37v337h116v-278l133 67v-94l-133 -67v-218z" glyph-name="Lslash" horiz-adv-x="517" unicode="Ł"/><glyph d="M262 517v-95l-85 -32v-390h-112v347l-52 -20v95l52 20v258h112v-215z" glyph-name="lslash" horiz-adv-x="273" unicode="ł"/><glyph d="M397 739h-106l101 135h137zM495 0l-315 535v-535h-105v700h135l325 -552v552h105v-701z" glyph-name="Nacute" horiz-adv-x="715" unicode="Ń"/><glyph d="M335 550h-106l101 135h137zM65 0v500h106v-63q20 28 58 52t92 24q23 0 46.5 -5t50 -19t46.5 -36t33 -60t13 -86v-307h-115v295q0 63 -27 93t-72 30q-52 0 -88.5 -45.5t-36.5 -120.5v-252h-106z" glyph-name="nacute" unicode="ń"/><glyph d="M495 0l-315 535v-535h-105v700h135l325 -552v552h105v-701zM305 -300v61q55 1 54 59h-60v128h119l-1 -128q0 -120 -112 -120z" glyph-name="Ncommaaccent" horiz-adv-x="715" unicode="Ņ"/><glyph d="M65 0v500h106v-63q20 28 58 52t92 24q23 0 46.5 -5t50 -19t46.5 -36t33 -60t13 -86v-307h-115v295q0 63 -27 93t-72 30q-52 0 -88.5 -45.5t-36.5 -120.5v-252h-106zM231 -300v61q55 1 54 59h-60v128h119l-1 -128q0 -120 -112 -120z" glyph-name="ncommaaccent" unicode="ņ"/><glyph d="M176 927h106l75 -108l76 108h106l-107 -171h-151zM495 0l-315 535v-535h-105v700h135l325 -552v552h105v-701z" glyph-name="Ncaron" horiz-adv-x="715" unicode="Ň"/><glyph d="M114 738h106l75 -108l76 108h106l-107 -171h-151zM65 0v500h106v-63q20 28 58 52t92 24q23 0 46.5 -5t50 -19t46.5 -36t33 -60t13 -86v-307h-115v295q0 63 -27 93t-72 30q-52 0 -88.5 -45.5t-36.5 -120.5v-252h-106z" glyph-name="ncaron" unicode="ň"/><glyph d="M535 700h105v-701q-1 -111 -56.5 -165t-168.5 -54v97q38 0 69.5 14.5t30.5 47.5q-1 24 -20 61l-315 535v-535h-105v700h135l325 -552v552z" glyph-name="Eng" horiz-adv-x="715" unicode="Ŋ"/><glyph d="M321 513q23 0 46.5 -5t50 -19t46.5 -36t33 -60t13 -86v-307q0 -69 -43 -118t-121 -49v108q27 0 38.5 14t10.5 45v295q0 63 -27 93t-72 30q-52 0 -88.5 -45.5t-36.5 -120.5v-252h-106v500h106v-63q20 28 58 52t92 24z" glyph-name="eng" unicode="ŋ"/><glyph d="M220 748v86h310v-86h-310zM372 -10q-140 0 -236 102t-96 258q0 155 96 256.5t236 101.5t236 -102t96 -258q0 -155 -96 -256.5t-236 -101.5zM371 97q96 0 157 70t61 178q0 112 -61 185t-156 73q-94 0 -154.5 -72.5t-60.5 -183.5q0 -108 60.5 -179t153.5 -71z" glyph-name="Omacron" horiz-adv-x="744" unicode="Ō"/><glyph d="M120 548v86h310v-86h-310zM272 -5q-103 0 -172.5 72t-69.5 183q0 112 69.5 184.5t172.5 72.5q102 0 171.5 -72.5t69.5 -184.5q0 -111 -69.5 -183t-171.5 -72zM271 94q64 0 100.5 43.5t36.5 111.5q0 70 -36 114t-100 44q-63 0 -99 -44t-36 -113q0 -68 35.5 -112t98.5 -44z " glyph-name="omacron" horiz-adv-x="543" unicode="ō"/><glyph d="M372 738q-84 0 -130.5 53t-48.5 129h88q2 -44 25.5 -74.5t65.5 -29.5q43 1 66 31t25 73h88q-2 -76 -48.5 -129t-130.5 -53zM372 -10q-140 0 -236 102t-96 258q0 155 96 256.5t236 101.5t236 -102t96 -258q0 -155 -96 -256.5t-236 -101.5zM371 97q96 0 157 70t61 178 q0 112 -61 185t-156 73q-94 0 -154.5 -72.5t-60.5 -183.5q0 -108 60.5 -179t153.5 -71z" glyph-name="Obreve" horiz-adv-x="744" unicode="Ŏ"/><glyph d="M272 538q-84 0 -130.5 53t-48.5 129h88q2 -44 25.5 -74.5t65.5 -29.5q43 1 66 31t25 73h88q-2 -76 -48.5 -129t-130.5 -53zM272 -5q-103 0 -172.5 72t-69.5 183q0 112 69.5 184.5t172.5 72.5q102 0 171.5 -72.5t69.5 -184.5q0 -111 -69.5 -183t-171.5 -72zM271 94 q64 0 100.5 43.5t36.5 111.5q0 70 -36 114t-100 44q-63 0 -99 -44t-36 -113q0 -68 35.5 -112t98.5 -44z" glyph-name="obreve" horiz-adv-x="543" unicode="ŏ"/><glyph d="M212 758v128h119v-128h-119zM407 758v128h119v-128h-119zM372 -10q-140 0 -236 102t-96 258q0 155 96 256.5t236 101.5t236 -102t96 -258q0 -155 -96 -256.5t-236 -101.5zM371 97q96 0 157 70t61 178q0 112 -61 185t-156 73q-94 0 -154.5 -72.5t-60.5 -183.5 q0 -108 60.5 -179t153.5 -71z" glyph-name="Ohungarumlaut" horiz-adv-x="744" unicode="Ő"/><glyph d="M112 558v128h119v-128h-119zM307 558v128h119v-128h-119zM272 -5q-103 0 -172.5 72t-69.5 183q0 112 69.5 184.5t172.5 72.5q102 0 171.5 -72.5t69.5 -184.5q0 -111 -69.5 -183t-171.5 -72zM271 94q64 0 100.5 43.5t36.5 111.5q0 70 -36 114t-100 44q-63 0 -99 -44 t-36 -113q0 -68 35.5 -112t98.5 -44z" glyph-name="ohungarumlaut" horiz-adv-x="543" unicode="ő"/><glyph d="M1063 593h-352v-187h331v-103h-331v-196h352v-107h-459v87q-95 -97 -232 -97q-140 0 -236 102t-96 258q0 155 96 256.5t236 101.5q137 0 232 -98v90h459v-107zM371 97q96 0 157 70t61 178q0 112 -61 185t-156 73q-94 0 -154.5 -72.5t-60.5 -183.5q0 -108 60.5 -179 t153.5 -71z" glyph-name="OE" horiz-adv-x="1093" unicode="Œ"/><glyph d="M900 214h-354v-1q0 -61 35.5 -96.5t95.5 -35.5q88 0 115 77h100q-12 -75 -69.5 -122t-145.5 -47q-144 0 -207 111q-33 -49 -84.5 -77t-113.5 -28q-103 0 -172.5 72t-69.5 183q0 112 69.5 184.5t172.5 72.5q63 0 116.5 -29.5t85.5 -81.5q64 110 200 110q113 0 174 -82.5 t52 -209.5zM671 414q-50 0 -84.5 -30t-37.5 -77h239q-2 47 -34.5 77t-82.5 30zM271 94q64 0 100.5 43.5t36.5 111.5q0 70 -36 114t-100 44q-63 0 -99 -44t-36 -113q0 -68 35.5 -112t98.5 -44z" glyph-name="oe" horiz-adv-x="931" unicode="œ"/><glyph d="M363 739h-106l101 135h137zM75 -1v701l302 1q91 0 148 -55.5t57 -137.5q0 -65 -31.5 -111.5t-74.5 -61.5q45 -14 67 -54t27 -107q2 -24 4 -60t3.5 -49t6 -31t13.5 -34h-124q-4 10 -7 21t-5 26.5t-2.5 26t-2 35.5t-2.5 40q-3 42 -8.5 65.5t-20 44t-42.5 29t-73 8.5h-125 v-297h-110zM185 391h164q56 0 90 26t34 81t-34 81.5t-90 26.5h-164v-215z" glyph-name="Racute" horiz-adv-x="647" unicode="Ŕ"/><glyph d="M205 539h-106l101 135h137zM65 0v500h103v-61q7 14 19 27t45 27.5t76 14.5h23v-111h-17q-146 2 -146 -144v-253h-103z" glyph-name="racute" horiz-adv-x="331" unicode="ŕ"/><glyph d="M75 -1v701l302 1q91 0 148 -55.5t57 -137.5q0 -65 -31.5 -111.5t-74.5 -61.5q45 -14 67 -54t27 -107q2 -24 4 -60t3.5 -49t6 -31t13.5 -34h-124q-4 10 -7 21t-5 26.5t-2.5 26t-2 35.5t-2.5 40q-3 42 -8.5 65.5t-20 44t-42.5 29t-73 8.5h-125v-297h-110zM185 391h164 q56 0 90 26t34 81t-34 81.5t-90 26.5h-164v-215zM271 -300v61q55 1 54 59h-60v128h119l-1 -128q0 -120 -112 -120z" glyph-name="Rcommaaccent" horiz-adv-x="647" unicode="Ŗ"/><glyph d="M65 0v500h103v-61q7 14 19 27t45 27.5t76 14.5h23v-111h-17q-146 2 -146 -144v-253h-103zM63 -300v61q55 1 54 59h-60v128h119l-1 -128q0 -120 -112 -120z" glyph-name="rcommaaccent" horiz-adv-x="331" unicode="ŗ"/><glyph d="M142 927h106l75 -108l76 108h106l-107 -171h-151zM75 -1v701l302 1q91 0 148 -55.5t57 -137.5q0 -65 -31.5 -111.5t-74.5 -61.5q45 -14 67 -54t27 -107q2 -24 4 -60t3.5 -49t6 -31t13.5 -34h-124q-4 10 -7 21t-5 26.5t-2.5 26t-2 35.5t-2.5 40q-3 42 -8.5 65.5t-20 44 t-42.5 29t-73 8.5h-125v-297h-110zM185 391h164q56 0 90 26t34 81t-34 81.5t-90 26.5h-164v-215z" glyph-name="Rcaron" horiz-adv-x="647" unicode="Ř"/><glyph d="M-16 727h106l75 -108l76 108h106l-107 -171h-151zM65 0v500h103v-61q7 14 19 27t45 27.5t76 14.5h23v-111h-17q-146 2 -146 -144v-253h-103z" glyph-name="rcaron" horiz-adv-x="331" unicode="ř"/><glyph d="M347 739h-106l101 135h137zM322 -7q-112 0 -195.5 58t-91.5 165h124q13 -57 54.5 -88t108.5 -31q61 0 97.5 32t36.5 73q0 85 -128 98q-144 15 -209 69.5t-65 131.5q0 86 71 145.5t179 59.5q118 0 187.5 -59t74.5 -163h-118q-4 53 -45 83.5t-100 30.5q-58 0 -91 -28.5 t-33 -64.5q0 -40 38 -65t104 -33q142 -16 201 -69.5t59 -136.5q0 -95 -72.5 -151.5t-186.5 -56.5z" glyph-name="Sacute" horiz-adv-x="616" unicode="Ś"/><glyph d="M269 539h-106l101 135h137zM240 -11q-89 0 -150 44.5t-65 126.5h102q8 -38 38 -59.5t71 -21.5q39 0 63.5 20.5t24.5 51.5q0 51 -92 64q-62 9 -103 26t-59 40t-24 41.5t-6 41.5q0 59 52 102t135 43q77 0 133.5 -42t63.5 -128h-99q-5 31 -24 49.5t-36 23t-36 4.5 q-33 0 -57 -13.5t-24 -39.5q0 -49 85 -60q111 -14 156.5 -52t45.5 -100q0 -74 -59.5 -118t-135.5 -44z" glyph-name="sacute" horiz-adv-x="460" unicode="ś"/><glyph d="M222 910h151l107 -171h-111l-71 108l-71 -108h-110zM322 -7q-112 0 -195.5 58t-91.5 165h124q13 -57 54.5 -88t108.5 -31q61 0 97.5 32t36.5 73q0 85 -128 98q-144 15 -209 69.5t-65 131.5q0 86 71 145.5t179 59.5q118 0 187.5 -59t74.5 -163h-118q-4 53 -45 83.5 t-100 30.5q-58 0 -91 -28.5t-33 -64.5q0 -40 38 -65t104 -33q142 -16 201 -69.5t59 -136.5q0 -95 -72.5 -151.5t-186.5 -56.5z" glyph-name="Scircumflex" horiz-adv-x="616" unicode="Ŝ"/><glyph d="M144 710h151l107 -171h-111l-71 108l-71 -108h-110zM240 -11q-89 0 -150 44.5t-65 126.5h102q8 -38 38 -59.5t71 -21.5q39 0 63.5 20.5t24.5 51.5q0 51 -92 64q-62 9 -103 26t-59 40t-24 41.5t-6 41.5q0 59 52 102t135 43q77 0 133.5 -42t63.5 -128h-99q-5 31 -24 49.5 t-36 23t-36 4.5q-33 0 -57 -13.5t-24 -39.5q0 -49 85 -60q111 -14 156.5 -52t45.5 -100q0 -74 -59.5 -118t-135.5 -44z" glyph-name="scircumflex" horiz-adv-x="460" unicode="ŝ"/><glyph d="M581 201q0 -92 -69 -148.5t-178 -59.5l-15 -27q20 4 40 1q35 -6 56.5 -31t21.5 -61q0 -46 -31.5 -77.5t-77.5 -31.5q-37 0 -71.5 21.5t-45.5 52.5l63 22q8 -13 23.5 -22t30.5 -9q18 0 30 13t12 31q0 29 -25 37t-57 -8l-52 30l34 62q-96 14 -162 70.5t-73 149.5h124 q13 -57 54.5 -88t108.5 -31q61 0 97.5 32t36.5 73q0 85 -128 98q-144 15 -209 69.5t-65 131.5q0 86 71 145.5t179 59.5q118 0 187.5 -59t74.5 -163h-118q-4 53 -45 83.5t-100 30.5q-58 0 -91 -28.5t-33 -64.5q0 -40 38 -65t104 -33q142 -16 201 -69.5t59 -136.5z" glyph-name="Scedilla" horiz-adv-x="616" unicode="Ş"/><glyph d="M435 151q0 -70 -54.5 -113.5t-127.5 -48.5l-12 -21q20 4 40 1q35 -5 56.5 -30.5t21.5 -61.5q0 -46 -31.5 -77.5t-77.5 -31.5q-37 0 -71.5 21.5t-45.5 52.5l63 22q8 -13 23.5 -22t30.5 -9q18 0 30 13t12 31q0 29 -25 37t-57 -8l-52 30l31 57q-71 12 -115.5 55t-48.5 112 h102q8 -38 38 -59.5t71 -21.5q39 0 63.5 20.5t24.5 51.5q0 51 -92 64q-62 9 -103 26t-59 40t-24 41.5t-6 41.5q0 59 52 102t135 43q77 0 133.5 -42t63.5 -128h-99q-5 31 -24 49.5t-36 23t-36 4.5q-33 0 -57 -13.5t-24 -39.5q0 -49 85 -60q111 -14 156.5 -52t45.5 -100z" glyph-name="scedilla" horiz-adv-x="460" unicode="ş"/><glyph d="M126 927h106l75 -108l76 108h106l-107 -171h-151zM322 -7q-112 0 -195.5 58t-91.5 165h124q13 -57 54.5 -88t108.5 -31q61 0 97.5 32t36.5 73q0 85 -128 98q-144 15 -209 69.5t-65 131.5q0 86 71 145.5t179 59.5q118 0 187.5 -59t74.5 -163h-118q-4 53 -45 83.5 t-100 30.5q-58 0 -91 -28.5t-33 -64.5q0 -40 38 -65t104 -33q142 -16 201 -69.5t59 -136.5q0 -95 -72.5 -151.5t-186.5 -56.5z" glyph-name="Scaron" horiz-adv-x="616" unicode="Š"/><glyph d="M48 727h106l75 -108l76 108h106l-107 -171h-151zM240 -11q-89 0 -150 44.5t-65 126.5h102q8 -38 38 -59.5t71 -21.5q39 0 63.5 20.5t24.5 51.5q0 51 -92 64q-62 9 -103 26t-59 40t-24 41.5t-6 41.5q0 59 52 102t135 43q77 0 133.5 -42t63.5 -128h-99q-5 31 -24 49.5 t-36 23t-36 4.5q-33 0 -57 -13.5t-24 -39.5q0 -49 85 -60q111 -14 156.5 -52t45.5 -100q0 -74 -59.5 -118t-135.5 -44z" glyph-name="scaron" horiz-adv-x="460" unicode="š"/><glyph d="M353 10q35 -6 56.5 -31t21.5 -61q0 -46 -31.5 -77.5t-77.5 -31.5q-37 0 -71.5 21.5t-45.5 52.5l63 22q8 -13 23.5 -22t30.5 -9q18 0 30 13t12 31q0 29 -25 37t-57 -8l-52 30l13 23h-1l1 597h-242l-1 103h590l1 -103l-241 1l-1 -587q1 -1 4 -1z" glyph-name="Tcommaaccent" horiz-adv-x="591" unicode="Ţ"/><glyph d="M205 0q-9 0 -25 2l-16 -29q20 4 40 1q35 -6 56.5 -31t21.5 -61q0 -46 -31.5 -77.5t-77.5 -31.5q-37 0 -71.5 21.5t-45.5 52.5l63 22q8 -13 23.5 -22t30.5 -9q18 0 30 13t12 31q0 29 -25 37t-57 -8l-52 30l44 81q-57 37 -57 111v277h-78v90h78v160h104v-160h128v-90h-128 v-250q0 -38 12.5 -52t48.5 -14h68l-1 -94h-95z" glyph-name="tcommaaccent" horiz-adv-x="311" unicode="ţ"/><glyph d="M114 927h106l75 -108l76 108h106l-107 -171h-151zM242 0l1 597h-242l-1 103h590l1 -103l-241 1l-1 -598h-107z" glyph-name="Tcaron" horiz-adv-x="591" unicode="Ť"/><glyph d="M-60 887h106l75 -108l76 108h106l-107 -171h-151zM205 0q-60 0 -98.5 37.5t-38.5 95.5v277h-78v90h78v160h104v-160h128v-90h-128v-250q0 -38 12.5 -52t48.5 -14h68l-1 -94h-95z" glyph-name="tcaron" horiz-adv-x="311" unicode="ť"/><glyph d="M144 748v86h310v-86h-310zM242 0l1 597h-242l-1 103h590l1 -103l-241 1l-1 -598h-107z" glyph-name="Tbar" horiz-adv-x="591" unicode="Ŧ"/><glyph d="M320 256h-129v-96q0 -38 12.5 -52t48.5 -14h68l-1 -94h-95q-60 0 -98.5 37.5t-38.5 95.5v123h-74v86h74v68h-78v90h78v160h104v-160h128v-90h-128v-68h129v-86z" glyph-name="tbar" horiz-adv-x="330" unicode="ŧ"/><glyph d="M420 741q-60 0 -101 58q-12 19 -27 19q-22 0 -25 -29q0 -19 7 -40h-85q-4 16 -4 33q-2 53 27 86t76 33q63 0 102 -58q10 -19 27 -19q15 0 21.5 14t1.5 37q-1 4 -5 17h85q2 -8 2 -12q10 -60 -19 -99.5t-83 -39.5zM349 -8q-129 0 -206.5 76t-77.5 205v427h110v-427 q0 -85 47 -131.5t127 -46.5q79 0 126.5 46.5t47.5 131.5v427h110v-427q0 -129 -77.5 -205t-206.5 -76z" glyph-name="Utilde" horiz-adv-x="698" unicode="Ũ"/><glyph d="M350 541q-60 0 -101 58q-12 19 -27 19q-22 0 -25 -29q0 -19 7 -40h-85q-4 16 -4 33q-2 53 27 86t76 33q63 0 102 -58q10 -19 27 -19q15 0 21.5 14t1.5 37q-1 4 -5 17h85q2 -8 2 -12q10 -60 -19 -99.5t-83 -39.5zM249 -13q-23 0 -46.5 5t-50 19t-46.5 36t-33 60t-13 86 v307h115v-295q0 -63 27 -93t72 -30q52 0 88.5 45.5t36.5 120.5v252h106v-500h-106v63q-20 -28 -58 -52t-92 -24z" glyph-name="utilde" unicode="ũ"/><glyph d="M203 748v86h310v-86h-310zM349 -8q-129 0 -206.5 76t-77.5 205v427h110v-427q0 -85 47 -131.5t127 -46.5q79 0 126.5 46.5t47.5 131.5v427h110v-427q0 -129 -77.5 -205t-206.5 -76z" glyph-name="Umacron" horiz-adv-x="698" unicode="Ū"/><glyph d="M133 548v86h310v-86h-310zM249 -13q-23 0 -46.5 5t-50 19t-46.5 36t-33 60t-13 86v307h115v-295q0 -63 27 -93t72 -30q52 0 88.5 45.5t36.5 120.5v252h106v-500h-106v63q-20 -28 -58 -52t-92 -24z" glyph-name="umacron" unicode="ū"/><glyph d="M355 738q-84 0 -130.5 53t-48.5 129h88q2 -44 25.5 -74.5t65.5 -29.5q43 1 66 31t25 73h88q-2 -76 -48.5 -129t-130.5 -53zM349 -8q-129 0 -206.5 76t-77.5 205v427h110v-427q0 -85 47 -131.5t127 -46.5q79 0 126.5 46.5t47.5 131.5v427h110v-427q0 -129 -77.5 -205 t-206.5 -76z" glyph-name="Ubreve" horiz-adv-x="698" unicode="Ŭ"/><glyph d="M285 538q-84 0 -130.5 53t-48.5 129h88q2 -44 25.5 -74.5t65.5 -29.5q43 1 66 31t25 73h88q-2 -76 -48.5 -129t-130.5 -53zM249 -13q-23 0 -46.5 5t-50 19t-46.5 36t-33 60t-13 86v307h115v-295q0 -63 27 -93t72 -30q52 0 88.5 45.5t36.5 120.5v252h106v-500h-106v63 q-20 -28 -58 -52t-92 -24z" glyph-name="ubreve" unicode="ŭ"/><glyph d="M355 740q-38 0 -65 27t-27 65t27 65t65 27q37 0 63.5 -27t27.5 -65q1 -37 -26 -64.5t-65 -27.5zM355 796q36 0 36 36q0 38 -36 38q-17 0 -27 -10.5t-10 -27.5q0 -36 37 -36zM349 -8q-129 0 -206.5 76t-77.5 205v427h110v-427q0 -85 47 -131.5t127 -46.5q79 0 126.5 46.5 t47.5 131.5v427h110v-427q0 -129 -77.5 -205t-206.5 -76z" glyph-name="Uring" horiz-adv-x="698" unicode="Ů"/><glyph d="M285 540q-38 0 -65 27t-27 65t27 65t65 27q37 0 63.5 -27t27.5 -65q1 -37 -26 -64.5t-65 -27.5zM285 596q36 0 36 36q0 38 -36 38q-17 0 -27 -10.5t-10 -27.5q0 -36 37 -36zM249 -13q-23 0 -46.5 5t-50 19t-46.5 36t-33 60t-13 86v307h115v-295q0 -63 27 -93t72 -30 q52 0 88.5 45.5t36.5 120.5v252h106v-500h-106v63q-20 -28 -58 -52t-92 -24z" glyph-name="uring" unicode="ů"/><glyph d="M195 758v128h119v-128h-119zM390 758v128h119v-128h-119zM349 -8q-129 0 -206.5 76t-77.5 205v427h110v-427q0 -85 47 -131.5t127 -46.5q79 0 126.5 46.5t47.5 131.5v427h110v-427q0 -129 -77.5 -205t-206.5 -76z" glyph-name="Uhungarumlaut" horiz-adv-x="698" unicode="Ű"/><glyph d="M125 558v128h119v-128h-119zM320 558v128h119v-128h-119zM249 -13q-23 0 -46.5 5t-50 19t-46.5 36t-33 60t-13 86v307h115v-295q0 -63 27 -93t72 -30q52 0 88.5 45.5t36.5 120.5v252h106v-500h-106v63q-20 -28 -58 -52t-92 -24z" glyph-name="uhungarumlaut" unicode="ű"/><glyph d="M523 700h110v-427q0 -120 -68.5 -195t-184.5 -85q-42 -16 -65.5 -51.5t-23.5 -69.5q0 -25 15.5 -40.5t42.5 -15.5q26 0 51 15t39 38l46 -64q-65 -67 -161 -60q-58 4 -94.5 32.5t-36.5 82.5q0 88 98 136q-105 17 -165.5 90.5t-60.5 186.5v427h110v-427q0 -85 47 -131.5 t127 -46.5q79 0 126.5 46.5t47.5 131.5v427z" glyph-name="Uogonek" horiz-adv-x="698" unicode="Ų"/><glyph d="M503 -135l46 -64q-65 -67 -161 -60q-58 4 -94.5 32.5t-36.5 82.5q0 50 35.5 90.5t106.5 63.5v53q-20 -28 -58 -52t-92 -24q-23 0 -46.5 5t-50 19t-46.5 36t-33 60t-13 86v307h115v-295q0 -63 27 -93t72 -30q52 0 88.5 45.5t36.5 120.5v252h106v-500h-2 q-67 0 -107.5 -42.5t-40.5 -89.5q0 -25 15.5 -40.5t42.5 -15.5q26 0 51 15t39 38z" glyph-name="uogonek" unicode="ų"/><glyph d="M390 910h151l107 -171h-111l-71 108l-71 -108h-110zM227 0l-212 700h113l151 -543l146 543h104l155 -543l141 543h112l-202 -700h-103l-155 535l-147 -535h-103z" glyph-name="Wcircumflex" horiz-adv-x="952" unicode="Ŵ"/><glyph d="M282 710h151l107 -171h-111l-71 108l-71 -108h-110zM170 0l-165 500h114l104 -352l102 352h84l104 -352l102 352h116l-166 -500h-105l-92 309l-93 -309h-105z" glyph-name="wcircumflex" horiz-adv-x="736" unicode="ŵ"/><glyph d="M236 910h151l107 -171h-111l-71 108l-71 -108h-110zM268 0v282l-258 418h121l191 -318l201 318h111l-258 -418v-282h-108z" glyph-name="Ycircumflex" horiz-adv-x="644" unicode="Ŷ"/><glyph d="M159 710h151l107 -171h-111l-71 108l-71 -108h-110zM36 -200l-1 97h49q61 0 88 70l23 64l-195 469h115l135 -342l125 342h115l-216 -561q-55 -139 -179 -139h-59z" glyph-name="ycircumflex" horiz-adv-x="490" unicode="ŷ"/><glyph d="M163 756v128h119v-128h-119zM358 756v128h119v-128h-119zM268 0v282l-258 418h121l191 -318l201 318h111l-258 -418v-282h-108z" glyph-name="Ydieresis" horiz-adv-x="644" unicode="Ÿ"/><glyph d="M359 739h-106l101 135h137zM40 0v109l434 482h-428v109h563v-109l-426 -482h420v-109h-563z" glyph-name="Zacute" horiz-adv-x="639" unicode="Ź"/><glyph d="M283 539h-106l101 135h137zM30 0v98l277 305h-277v98l407 -1v-97l-277 -305h277v-98h-407z" glyph-name="zacute" horiz-adv-x="477" unicode="ź"/><glyph d="M258 757v128h119v-128h-119zM40 0v109l434 482h-428v109h563v-109l-426 -482h420v-109h-563z" glyph-name="Zdotaccent" horiz-adv-x="639" unicode="Ż"/><glyph d="M182 557v128h119v-128h-119zM30 0v98l277 305h-277v98l407 -1v-97l-277 -305h277v-98h-407z" glyph-name="zdotaccent" horiz-adv-x="477" unicode="ż"/><glyph d="M138 927h106l75 -108l76 108h106l-107 -171h-151zM40 0v109l434 482h-428v109h563v-109l-426 -482h420v-109h-563z" glyph-name="Zcaron" horiz-adv-x="639" unicode="Ž"/><glyph d="M62 727h106l75 -108l76 108h106l-107 -171h-151zM30 0v98l277 305h-277v98l407 -1v-97l-277 -305h277v-98h-407z" glyph-name="zcaron" horiz-adv-x="477" unicode="ž"/><glyph d="M254 711q110 0 175.5 -68.5t65.5 -188.5q0 -116 -66 -188t-172 -72q-113 0 -174 82.5t-52 209.5h354v1q0 61 -35.5 96.5t-95.5 35.5q-88 0 -115 -77h-100q12 75 69.5 122t145.5 47zM382 393h-239q2 -47 34.5 -77t82.5 -30t84.5 30t37.5 77z" glyph-name="uni018F" horiz-adv-x="525" unicode="Ə"/><glyph d="M322 -7q-112 0 -195.5 58t-91.5 165h124q13 -57 54.5 -88t108.5 -31q61 0 97.5 32t36.5 73q0 85 -128 98q-144 15 -209 69.5t-65 131.5q0 86 71 145.5t179 59.5q118 0 187.5 -59t74.5 -163h-118q-4 53 -45 83.5t-100 30.5q-58 0 -91 -28.5t-33 -64.5q0 -40 38 -65 t104 -33q142 -16 201 -69.5t59 -136.5q0 -95 -72.5 -151.5t-186.5 -56.5zM255 -300v61q55 1 54 59h-60v128h119l-1 -128q0 -120 -112 -120z" glyph-name="Scommaaccent" horiz-adv-x="616" unicode="Ș"/><glyph d="M240 -11q-89 0 -150 44.5t-65 126.5h102q8 -38 38 -59.5t71 -21.5q39 0 63.5 20.5t24.5 51.5q0 51 -92 64q-62 9 -103 26t-59 40t-24 41.5t-6 41.5q0 59 52 102t135 43q77 0 133.5 -42t63.5 -128h-99q-5 31 -24 49.5t-36 23t-36 4.5q-33 0 -57 -13.5t-24 -39.5 q0 -49 85 -60q111 -14 156.5 -52t45.5 -100q0 -74 -59.5 -118t-135.5 -44zM176 -300v61q55 1 54 59h-60v128h119l-1 -128q0 -120 -112 -120z" glyph-name="scommaaccent" horiz-adv-x="460" unicode="ș"/><glyph d="M242 0l1 597h-242l-1 103h590l1 -103l-241 1l-1 -598h-107zM243 -300v61q55 1 54 59h-60v128h119l-1 -128q0 -120 -112 -120z" glyph-name="uni021A" horiz-adv-x="591" unicode="Ț"/><glyph d="M205 0q-60 0 -98.5 37.5t-38.5 95.5v277h-78v90h78v160h104v-160h128v-90h-128v-250q0 -38 12.5 -52t48.5 -14h68l-1 -94h-95zM134 -300v61q55 1 54 59h-60v128h119l-1 -128q0 -120 -112 -120z" glyph-name="uni021B" horiz-adv-x="311" unicode="ț"/><glyph d="M170 748v86h310v-86h-310zM268 0v282l-258 418h121l191 -318l201 318h111l-258 -418v-282h-108z" glyph-name="uni0232" horiz-adv-x="644" unicode="Ȳ"/><glyph d="M93 548v86h310v-86h-310zM36 -200l-1 97h49q61 0 88 70l23 64l-195 469h115l135 -342l125 342h115l-216 -561q-55 -139 -179 -139h-59z" glyph-name="uni0233" horiz-adv-x="490" unicode="ȳ"/><glyph d="M-20 -177v101h23q33 0 52.5 19.5t19.5 59.5v497h106v-517q0 -74 -44.5 -117t-114.5 -43h-42z" glyph-name="uni0237" horiz-adv-x="236" unicode="ȷ"/><glyph d="M119 750h151l107 -171h-111l-71 108l-71 -108h-110z" glyph-name="circumflex" horiz-adv-x="53" unicode="ˆ"/><glyph d="M14 750h106l75 -108l76 108h106l-107 -171h-151z" glyph-name="caron" horiz-adv-x="53" unicode="ˇ"/><glyph d="M287 557q-84 0 -130.5 53t-48.5 129h88q2 -44 25.5 -74.5t65.5 -29.5q43 1 66 31t25 73h88q-2 -76 -48.5 -129t-130.5 -53z" glyph-name="breve" horiz-adv-x="53" unicode="˘"/><glyph d="M92 581v128h119v-128h-119z" glyph-name="dotaccent" horiz-adv-x="53" unicode="˙"/><glyph d="M84 560q-38 0 -65 27t-27 65t27 65t65 27q37 0 63.5 -27t27.5 -65q1 -37 -26 -64.5t-65 -27.5zM84 616q36 0 36 36q0 38 -36 38q-17 0 -27 -10.5t-10 -27.5q0 -36 37 -36z" glyph-name="ring" horiz-adv-x="53" unicode="˚"/><glyph d="M122 -259q-58 4 -94.5 32.5t-36.5 82.5q0 56 44.5 99.5t134.5 65.5l67 -21q-67 0 -107.5 -42.5t-40.5 -89.5q0 -25 15.5 -40.5t42.5 -15.5q26 0 51 15t39 38l46 -64q-65 -67 -161 -60z" glyph-name="ogonek" horiz-adv-x="53" unicode="˛"/><glyph d="M-147 597q-60 0 -101 58q-12 19 -27 19q-22 0 -25 -29q0 -19 7 -40h-85q-4 16 -4 33q-2 53 27 86t76 33q63 0 102 -58q10 -19 27 -19q15 0 21.5 14t1.5 37q-1 4 -5 17h85q2 -8 2 -12q10 -60 -19 -99.5t-83 -39.5z" glyph-name="tilde" horiz-adv-x="0" unicode="˜"/><glyph d="M59 591v128h119v-128h-119zM254 591v128h119v-128h-119z" glyph-name="hungarumlaut" horiz-adv-x="53" unicode="˝"/><glyph d="M-141 575l-132 135h137l101 -135h-106z" glyph-name="gravecomb" horiz-adv-x="0" unicode="̀"/><glyph d="M-517 575h-106l101 135h137z" glyph-name="acutecomb" horiz-adv-x="0" unicode="́"/><glyph d="M-147 597q-60 0 -101 58q-12 19 -27 19q-22 0 -25 -29q0 -19 7 -40h-85q-4 16 -4 33q-2 53 27 86t76 33q63 0 102 -58q10 -19 27 -19q15 0 21.5 14t1.5 37q-1 4 -5 17h85q2 -8 2 -12q10 -60 -19 -99.5t-83 -39.5z" glyph-name="tildecomb" horiz-adv-x="0" unicode="̃"/><glyph d="M-146 -261v128h119v-128h-119z" glyph-name="dotbelowcomb" horiz-adv-x="0" unicode="̣"/><glyph d="M-362 -300v61q55 1 54 59h-60v128h119l-1 -128q0 -120 -112 -120z" glyph-name="uni0326" horiz-adv-x="0" unicode="̦"/><glyph d="M426 740l-132 135h137l101 -135h-106zM227 0l-212 700h113l151 -543l146 543h104l155 -543l141 543h112l-202 -700h-103l-155 535l-147 -535h-103z" glyph-name="Wgrave" horiz-adv-x="952" unicode="Ẁ"/><glyph d="M318 540l-132 135h137l101 -135h-106zM170 0l-165 500h114l104 -352l102 352h84l104 -352l102 352h116l-166 -500h-105l-92 309l-93 -309h-105z" glyph-name="wgrave" horiz-adv-x="736" unicode="ẁ"/><glyph d="M515 739h-106l101 135h137zM227 0l-212 700h113l151 -543l146 543h104l155 -543l141 543h112l-202 -700h-103l-155 535l-147 -535h-103z" glyph-name="Wacute" horiz-adv-x="952" unicode="Ẃ"/><glyph d="M407 539h-106l101 135h137zM170 0l-165 500h114l104 -352l102 352h84l104 -352l102 352h116l-166 -500h-105l-92 309l-93 -309h-105z" glyph-name="wacute" horiz-adv-x="736" unicode="ẃ"/><glyph d="M317 756v128h119v-128h-119zM512 756v128h119v-128h-119zM227 0l-212 700h113l151 -543l146 543h104l155 -543l141 543h112l-202 -700h-103l-155 535l-147 -535h-103z" glyph-name="Wdieresis" horiz-adv-x="952" unicode="Ẅ"/><glyph d="M209 556v128h119v-128h-119zM404 556v128h119v-128h-119zM170 0l-165 500h114l104 -352l102 352h84l104 -352l102 352h116l-166 -500h-105l-92 309l-93 -309h-105z" glyph-name="wdieresis" horiz-adv-x="736" unicode="ẅ"/><glyph d="M80 0v700h115v-700h-115zM79 -169v128h119v-128h-119z" glyph-name="uni1ECA" horiz-adv-x="275" unicode="Ị"/><glyph d="M81 0v500h112v-500h-112zM78 -173v128h119v-128h-119z" glyph-name="uni1ECB" horiz-adv-x="257" unicode="ị"/><glyph d="M372 -10q-140 0 -236 102t-96 258q0 155 96 256.5t236 101.5t236 -102t96 -258q0 -155 -96 -256.5t-236 -101.5zM371 97q96 0 157 70t61 178q0 112 -61 185t-156 73q-94 0 -154.5 -72.5t-60.5 -183.5q0 -108 60.5 -179t153.5 -71zM313 -169v128h119v-128h-119z" glyph-name="uni1ECC" horiz-adv-x="744" unicode="Ọ"/><glyph d="M272 -5q-103 0 -172.5 72t-69.5 183q0 112 69.5 184.5t172.5 72.5q102 0 171.5 -72.5t69.5 -184.5q0 -111 -69.5 -183t-171.5 -72zM271 94q64 0 100.5 43.5t36.5 111.5q0 70 -36 114t-100 44q-63 0 -99 -44t-36 -113q0 -68 35.5 -112t98.5 -44zM213 -169v128h119v-128 h-119z" glyph-name="uni1ECD" horiz-adv-x="543" unicode="ọ"/><glyph d="M349 -8q-129 0 -206.5 76t-77.5 205v427h110v-427q0 -85 47 -131.5t127 -46.5q79 0 126.5 46.5t47.5 131.5v427h110v-427q0 -129 -77.5 -205t-206.5 -76zM290 -169v128h119v-128h-119z" glyph-name="uni1EE4" horiz-adv-x="698" unicode="Ụ"/><glyph d="M249 -13q-23 0 -46.5 5t-50 19t-46.5 36t-33 60t-13 86v307h115v-295q0 -63 27 -93t72 -30q52 0 88.5 45.5t36.5 120.5v252h106v-500h-106v63q-20 -28 -58 -52t-92 -24zM226 -169v128h119v-128h-119z" glyph-name="uni1EE5" unicode="ụ"/><glyph d="M272 740l-132 135h137l101 -135h-106zM268 0v282l-258 418h121l191 -318l201 318h111l-258 -418v-282h-108z" glyph-name="Ygrave" horiz-adv-x="644" unicode="Ỳ"/><glyph d="M195 540l-132 135h137l101 -135h-106zM36 -200l-1 97h49q61 0 88 70l23 64l-195 469h115l135 -342l125 342h115l-216 -561q-55 -139 -179 -139h-59z" glyph-name="ygrave" horiz-adv-x="490" unicode="ỳ"/><glyph d="M94 216v78h500v-78h-500z" glyph-name="endash" horiz-adv-x="687" unicode="–"/><glyph d="M10 216v78h1000v-78h-1000z" glyph-name="emdash" horiz-adv-x="1019" unicode="—"/><glyph d="M24 552l1 128q1 120 112 120v-61q-55 -1 -54 -59h60v-128h-119z" glyph-name="quoteleft" horiz-adv-x="167" unicode="‘"/><glyph d="M30 553v61q55 1 54 59h-60v128h119l-1 -128q-1 -120 -112 -120z" glyph-name="quoteright" horiz-adv-x="140" unicode="’"/><glyph d="M45 -120v61q55 1 54 59h-60v128h119l-1 -128q-1 -120 -112 -120z" glyph-name="quotesinglbase" horiz-adv-x="239" unicode="‚"/><glyph d="M15 552l1 128q1 120 112 120v-61q-55 -1 -54 -59h60v-128h-119zM180 552l1 128q1 120 112 120v-61q-55 -1 -54 -59h60v-128h-119z" glyph-name="quotedblleft" horiz-adv-x="313" unicode="“"/><glyph d="M8 552v61q55 1 54 59h-60v128h119l-1 -128q-1 -120 -112 -120zM173 552v61q55 1 54 59h-60v128h119l-1 -128q-1 -120 -112 -120z" glyph-name="quotedblright" horiz-adv-x="301" unicode="”"/><glyph d="M49 -120v61q55 1 54 59h-60v128h119l-1 -128q-1 -120 -112 -120zM214 -120v61q55 1 54 59h-60v128h119l-1 -128q-1 -120 -112 -120z" glyph-name="quotedblbase" horiz-adv-x="388" unicode="„"/><glyph d="M167 217v238h222v-238h-222z" glyph-name="bullet" horiz-adv-x="600" unicode="•"/><glyph d="M71 0v128h119v-128h-119zM321 0v128h119v-128h-119zM573 0v128h119v-128h-119z" glyph-name="ellipsis" horiz-adv-x="761" unicode="…"/><glyph d="M49 0l516 750h109l-516 -750h-109zM201 478q-54 0 -92 38t-38 93t38 93t92 38t92 -38t38 -93t-38 -93t-92 -38zM201 554q21 0 36 16t15 38t-15 37.5t-36 15.5t-35.5 -15.5t-14.5 -37.5q0 -23 14.5 -38.5t35.5 -15.5zM829 2q-54 0 -92 38t-38 93t38 93t92 38t92 -38 t38 -93t-38 -93t-92 -38zM527 0q-54 0 -92 38t-38 93t38 93t92 38t92 -38t38 -93t-38 -93t-92 -38zM829 78q21 0 36 16t15 38t-15 37.5t-36 15.5t-35.5 -15.5t-14.5 -37.5q0 -23 14.5 -38.5t35.5 -15.5zM527 76q21 0 36 16t15 38t-15 37.5t-36 15.5t-35.5 -15.5t-14.5 -37.5 q0 -23 14.5 -38.5t35.5 -15.5z" glyph-name="perthousand" horiz-adv-x="1026" unicode="‰"/><glyph d="M207 95l-152 184l152 184h98l-152 -184l152 -184h-98z" glyph-name="guilsinglleft" horiz-adv-x="339" unicode="‹"/><glyph d="M55 95l152 184l-152 184h98l152 -184l-152 -184h-98z" glyph-name="guilsinglright" horiz-adv-x="339" unicode="›"/><glyph d="M351 68q68 -1 108 43t48 127h105q-8 -117 -76 -189.5t-178 -71.5q-105 1 -179 65t-92 198h-66v97h62v36h-62v88h66q18 134 92 198t179 65q111 1 179 -71.5t75 -189.5h-105q-3 83 -44.5 126t-111.5 42q-61 -1 -102.5 -47t-48.5 -123h200v-88h-205v-36h205v-97h-200 q7 -77 48.5 -124t102.5 -48z" glyph-name="Euro" horiz-adv-x="644" unicode="€"/><glyph d="M198 454v206h-93v40h227l1 -40l-93 1l-1 -206zM368 455v244h53l85 -186l82 186h50v-244h-41v168l-74 -168h-36l-77 168l1 -168h-43z" glyph-name="trademark" horiz-adv-x="740" unicode="™"/><glyph d="M458 -9q-177 0 -302 112.5t-125 270.5q0 160 125 273t302 113q178 0 303 -113t125 -273v-10h-692q-6 0 -6 -4v-210q0 -11 9 -24q111 -114 262 -114q81 0 153 34t123 94h61q-58 -69 -147 -109t-191 -40zM194 385h531q4 0 4 7v210q0 16 -10 25q-112 110 -260 110t-261 -113 q-10 -12 -10 -26v-206q0 -7 6 -7z" glyph-name="estimated" horiz-adv-x="918" unicode="℮"/><glyph d="M64 244v87h600v-87h-600z" glyph-name="minus" horiz-adv-x="727" unicode="−"/><glyph d="M664 316h-209l-86 -101h295v-86h-368l-110 -129h-91l110 129h-141v86h214l86 101h-300v86h373l83 98h91l-83 -98h136v-86z" glyph-name="notequal" horiz-adv-x="727" unicode="≠"/><glyph d="M647 89l-552 279v61l552 277v-92l-445 -216l445 -217v-92zM650 31v-65h-559v65h559z" glyph-name="lessequal" horiz-adv-x="799" unicode="≤"/><glyph d="M94 89v92l445 217l-445 216v92l552 -277v-61zM91 31h559v-65h-559v65z" glyph-name="greaterequal" horiz-adv-x="739" unicode="≥"/><glyph d="M595 295v-85h-76v-210h-101v69q-14 -27 -57 -53.5t-102 -26.5q-80 0 -148 58.5t-79 162.5h-36v85h37q14 99 78.5 154.5t144.5 55.5q107 0 162 -76v271h101v-405h76zM279 408q-50 0 -85.5 -31t-46.5 -82h264q-12 52 -47.5 82.5t-84.5 30.5zM279 88q52 0 89 33.5t46 88.5 h-267q11 -55 46.5 -88.5t85.5 -33.5z" glyph-name="glyph354" horiz-adv-x="550"/><glyph d="M22 -1v701l300 1q91 0 148 -61t57 -153q0 -72 -38 -126t-103 -74l165 -287h-116l-159 277h-146v-278h-108zM130 372h164q54 0 89 30t35 86t-35 87t-89 31h-164v-234z" glyph-name="glyph355" horiz-adv-x="567"/><glyph d="M273 -11q-98 0 -161 73t-63 185q0 113 62 185.5t159 72.5q98 0 157 -68v63h105v-500h-105v66q-53 -77 -154 -77zM290 81q60 0 98.5 45t38.5 117q0 75 -38.5 122t-98.5 47q-59 0 -96.5 -45.5t-37.5 -119.5t37.5 -120t96.5 -46z" glyph-name="glyph356" horiz-adv-x="585"/><glyph d="M139 0q-70 0 -114.5 43t-44.5 117l5 540h106l-5 -520q-1 -40 19 -59.5t53 -19.5h23v-101h-42z" glyph-name="glyph357" horiz-adv-x="223"/></font>
</defs>
</svg>
